(New Age) Enya - The Very Best of Enya Deluxe Edition - 2009, FLAC (image+.cue), lossless

Ответить на тему
 
Автор Сообщение

Mickey23 ®

Стаж: 4 года 11 месяцев

Сообщений: 4

Пост 19-Июн-2017 13:10

[Цитировать]

The Very Best of Enya Жанр: New Age
Год выпуска диска: 2009
Производитель диска: Warner Music UK, EU
Аудио кодек: FLAC
Тип рипа: image+.cue
Битрейт аудио: lossless
Продолжительность: 1:19'57"
Трэклист:
01. Trains and Winter Rains
02. My! My! Time Flies!
03. Stars and Midnight Blue
04. Amarantine
05. Sumiregusa
06. The River Sings
07. If I Could Be Where You Are
08. Wild Child
09. Only Time
10. Drifting
11. Flora's Secret
12. Fallen Embers
13. One By One
14. Pax Deorum
15. Athair ar Neamh
16. Anywhere Is
17. Orinoco Flow
18. Watermark
19. Boadicea
20. May It Be
21. Carribbean Blue
22. Aniron (I Desire) Theme for Aragorn & Arwen

Отчёт ЕАС

Exact Audio Copy V0.99 prebeta 5 from 4. May 2009Отчёт EAC об извлечении, выполненном 15. декабря 2009, 19:30Enya / The Very Best OfДисковод: Optiarc DVD RW AD-7203A   Adapter: 4  ID: 1Режим чтения                 : ДостоверностьИспользование точного потока : ДаОтключение кэша аудио        : ДаИспользование указателей C2  : НетКоррекция смещения при чтении                     : 48Способность читать области Lead-in и Lead-out     : НетЗаполнение пропущенных сэмплов тишиной            : ДаУдаление блоков с тишиной в начале и конце        : НетПри вычислениях CRC использовались нулевые сэмплы : ДаИнтерфейс                                         : Встроенный Win32-интерфейс для Win NT/2000Выходной формат          : Пользовательский кодировщикВыбранный битрейт        : 128 kBit/sКачество                 : ВысокийДобавление ID3-тэга      : НетУтилита сжатия           : C:\Program Files\FLAC\flac.exeДополнительные параметры : -5 -V %sTOC извлечённого CD     Трек |   Старт  | Длительность | Начальный сектор | Конечный сектор    ---------------------------------------------------------------------       1  |  0:00.00 |    3:44.03   |           0      |      16802       2  |  3:44.03 |    3:00.71   |       16803      |      30373       3  |  6:44.74 |    3:07.62   |       30374      |      44460       4  |  9:52.61 |    3:11.67   |       44461      |      58852       5  | 13:04.53 |    4:40.05   |       58853      |      79857       6  | 17:44.58 |    2:48.17   |       79858      |      92474       7  | 20:33.00 |    3:59.67   |       92475      |     110466       8  | 24:32.67 |    3:47.70   |      110467      |     127561       9  | 28:20.62 |    3:38.00   |      127562      |     143911      10  | 31:58.62 |    4:10.47   |      143912      |     162708      11  | 36:09.34 |    4:06.44   |      162709      |     181202      12  | 40:16.03 |    2:29.65   |      181203      |     192442      13  | 42:45.68 |    3:53.43   |      192443      |     209960      14  | 46:39.36 |    4:58.30   |      209961      |     232340      15  | 51:37.66 |    3:41.47   |      232341      |     248962      16  | 55:19.38 |    3:58.61   |      248963      |     266873      17  | 59:18.24 |    4:26.71   |      266874      |     286894      18  | 63:45.20 |    2:25.38   |      286895      |     297807      19  | 66:10.58 |    3:31.63   |      297808      |     313695      20  | 69:42.46 |    3:32.53   |      313696      |     329648      21  | 73:15.24 |    3:59.23   |      329649      |     347596      22  | 77:14.47 |    2:43.16   |      347597      |     359837Характеристики диапазона извлечения и сообщения об ошибкахВыбранный диапазон     Имя файла D:\EAC\Enya - The Very Best Of.wav     Пиковый уровень 100.0 %     Качество диапазона 100.0 %     CRC теста C15902A9     CRC копии C15902A9     Копирование... OKОшибок не произошлоAccurateRip: сводкаТрек  1  нет в базе данныхТрек  2  нет в базе данныхТрек  3  нет в базе данныхТрек  4  нет в базе данныхТрек  5  нет в базе данныхТрек  6  нет в базе данныхТрек  7  нет в базе данныхТрек  8  нет в базе данныхТрек  9  нет в базе данныхТрек 10  нет в базе данныхТрек 11  нет в базе данныхТрек 12  нет в базе данныхТрек 13  нет в базе данныхТрек 14  нет в базе данныхТрек 15  нет в базе данныхТрек 16  нет в базе данныхТрек 17  нет в базе данныхТрек 18  нет в базе данныхТрек 19  нет в базе данныхТрек 20  нет в базе данныхТрек 21  нет в базе данныхТрек 22  нет в базе данныхНи одного трека нет в базе AccurateRipКонец отчёта
Доп. информация: Deluxe Edition сборника The Very Best of Enya содержит расширенный набор специально подобранных песен (22 против 18 в обычной версии), созданных Энией, поэтессой Рома Раян и продюссером Ники Раяном за двадцать лет их совместной карьеры, и DVD-диск с 13 клипами и редкими интервью певицы (можно скачать [url=viewtopic.php?t=2506897]здесь[/url]).
Особая благодарность GFox за составление релиза
[Профиль] [ЛС]
Показать сообщения:    
Ответить на тему

Текущее время: Сегодня 11:55

Часовой пояс: GMT + 3



Вы не можете начинать темы
Вы не можете отвечать на сообщения
Вы не можете редактировать свои сообщения
Вы не можете удалять свои сообщения
Вы не можете голосовать в опросах
Вы не можете прикреплять файлы к сообщениям
Вы не можете скачивать файлы