(Classical chamber) Dornel - Six Suittes en Trio (Musica Barocca) - 2008, FLAC (tracks+.cue) lossless

Ответить на тему
 
Автор Сообщение

introstudio ®

Стаж: 2 года 5 месяцев

Сообщений: 4

Пост 19-Июн-2017 12:40

[Цитировать]

Dornel - Six Suittes en Trio Жанр: Classical chamber
Страна-производитель диска: Made in Germany
Год издания диска: 2008
Издатель (лейбл): Naxos
Номер по каталогу: 8.570826
Дата записи: 2008
Аудиокодек: FLAC
Тип рипа: tracks+.cue
Битрейт аудио: lossless
Продолжительность: 68:38
Источник: релизер
сайт-источник/ник/другое: запасники
Наличие сканов в содержимом раздачи: да

Треклист

Suitte en Trio No. 3 in E minor, Op. 101.  I. Prelude02.  II. Allemande03.  III. Sarabande04.  IV. Gigue05.  V. Menuet - Menuet en Rondeau06.  VI. PassacailleSuitte en Trio No. 2 in A major, Op. 107.  I. Prelude08.  II. Allemande09.  III. Rondeau10.  IV. Sarabande11.  V. Fantaisie12.  VI. Chaconne13.  VII. Rigodons I and IISuitte en Trio No. 4 in D major, Op. 114.  I. Ouverture15.  II. Sarabande16.  III. Gavotte17.  IV. Chaconne18.  V. Rigodons I and IISuite en Trio No. 1 in A minor, Op. 119.  I. Overture20.  II. Air tendre21.  III. Rondeau22.  IV. Air en loure23.  V. Caprice24.  VI. GigueSuitte en Trio No. 5 in G major, Op. 125.  I. Ouverture26.  II. Air Grave27.  III. Rondeau - Autre Rondeau28.  IV. Plainte29.  V. GigueSuitte en Trio No. 6 in E minor, Op. 130.  I. Prelude31.  II. Allemande32.  III. Ritournelle33.  IV. Rondeau34.  V. Menuet35.  VI. ChaconneTotal Playing Time: 01:08:38

Исполнители

Louis-Antoine Dornel (1680 - 1765)Six Suittes en TrioMusica BaroccaPerformers:Lisete da Silva, Maria Martinez - baroque flutesJuan Estevez - harpsichordNicholas Stringfellow - viola da gambaMauricio Buraglia - theorboDate de sortie: 29 juillet 2008

Лог создания рипа

Exact Audio Copy V0.99 prebeta 4 from 23. January 2008EAC extraction logfile from 16. April 2010, 17:28Musica Barocca / Louis-Antoine Dornel - Six Suittes en TrioUsed drive  : HL-DT-STDVDRAM GSA-H62N   Adapter: 2  ID: 1Read mode               : SecureUtilize accurate stream : YesDefeat audio cache      : YesMake use of C2 pointers : NoRead offset correction                      : 667Overread into Lead-In and Lead-Out          : NoFill up missing offset samples with silence : YesDelete leading and trailing silent blocks   : NoNull samples used in CRC calculations       : YesUsed interface                              : Installed external ASPI interfaceGap handling                                : Appended to previous trackUsed output format              : User Defined EncoderSelected bitrate                : 128 kBit/sQuality                         : HighAdd ID3 tag                     : NoCommand line compressor         : C:\Program Files\Exact Audio Copy\Flac\flac.exeAdditional command line options : -8 -V -T "ARTIST=%a" -T "TITLE=%t" -T "ALBUM=%g" -T "DATE=%y" -T "TRACKNUMBER=%n" -T "GENRE=%m" -T "COMMENT=EAC FLAC -8" %sTOC of the extracted CD     Track |   Start  |  Length  | Start sector | End sector    ---------------------------------------------------------        1  |  0:00.00 |  1:45.60 |         0    |     7934        2  |  1:45.60 |  2:23.22 |      7935    |    18681        3  |  4:09.07 |  1:40.63 |     18682    |    26244        4  |  5:49.70 |  1:13.46 |     26245    |    31765        5  |  7:03.41 |  2:43.30 |     31766    |    44020        6  |  9:46.71 |  2:49.19 |     44021    |    56714        7  | 12:36.15 |  1:22.60 |     56715    |    62924        8  | 13:59.00 |  1:02.51 |     62925    |    67625        9  | 15:01.51 |  0:53.55 |     67626    |    71655       10  | 15:55.31 |  1:34.68 |     71656    |    78773       11  | 17:30.24 |  1:20.46 |     78774    |    84819       12  | 18:50.70 |  3:13.31 |     84820    |    99325       13  | 22:04.26 |  1:41.10 |     99326    |   106910       14  | 23:45.36 |  2:26.15 |    106911    |   117875       15  | 26:11.51 |  1:16.56 |    117876    |   123631       16  | 27:28.32 |  0:41.23 |    123632    |   126729       17  | 28:09.55 |  4:20.53 |    126730    |   146282       18  | 32:30.33 |  2:36.12 |    146283    |   157994       19  | 35:06.45 |  2:18.10 |    157995    |   168354       20  | 37:24.55 |  1:23.15 |    168355    |   174594       21  | 38:47.70 |  1:10.71 |    174595    |   179915       22  | 39:58.66 |  2:51.63 |    179916    |   192803       23  | 42:50.54 |  2:25.05 |    192804    |   203683       24  | 45:15.59 |  1:36.29 |    203684    |   210912       25  | 46:52.13 |  2:01.07 |    210913    |   219994       26  | 48:53.20 |  1:15.45 |    219995    |   225664       27  | 50:08.65 |  3:35.44 |    225665    |   241833       28  | 53:44.34 |  2:29.46 |    241834    |   253054       29  | 56:14.05 |  1:04.35 |    253055    |   257889       30  | 57:18.40 |  2:26.56 |    257890    |   268895       31  | 59:45.21 |  1:48.57 |    268896    |   277052       32  | 61:34.03 |  0:29.34 |    277053    |   279261       33  | 62:03.37 |  1:08.38 |    279262    |   284399       34  | 63:12.00 |  0:50.23 |    284400    |   288172       35  | 64:02.23 |  5:01.52 |    288173    |   310799Track  1     Filename G:\0.99\Louis-Antoine Dornel - Six Suittes en Trio (2008) [FLAC]\01 - Suitte in E minor - Prelude.wav     Pre-gap length  0:00:02.00     Peak level 74.8 %     Track quality 100.0 %     Test CRC 2191BED5     Copy CRC 2191BED5     Accurately ripped (confidence 1)  [06D2560A]     Copy OKTrack  2     Filename G:\0.99\Louis-Antoine Dornel - Six Suittes en Trio (2008) [FLAC]\02 - Suitte in E minor - Allemande.wav     Peak level 72.4 %     Track quality 100.0 %     Test CRC 6B0C1EE1     Copy CRC 6B0C1EE1     Accurately ripped (confidence 1)  [E4530E4D]     Copy OKTrack  3     Filename G:\0.99\Louis-Antoine Dornel - Six Suittes en Trio (2008) [FLAC]\03 - Suitte in E minor - Sarabande.wav     Peak level 65.5 %     Track quality 100.0 %     Test CRC FE6E6EA5     Copy CRC FE6E6EA5     Accurately ripped (confidence 1)  [148B7C56]     Copy OKTrack  4     Filename G:\0.99\Louis-Antoine Dornel - Six Suittes en Trio (2008) [FLAC]\04 - Suitte in E minor - Gigue.wav     Peak level 52.5 %     Track quality 100.0 %     Test CRC BACF6D1F     Copy CRC BACF6D1F     Accurately ripped (confidence 1)  [303E75F0]     Copy OKTrack  5     Filename G:\0.99\Louis-Antoine Dornel - Six Suittes en Trio (2008) [FLAC]\05 - Suitte in E minor - Menuet, Menuet en Rondeau.wav     Peak level 66.1 %     Track quality 100.0 %     Test CRC 92DCD3B3     Copy CRC 92DCD3B3     Accurately ripped (confidence 1)  [2708086B]     Copy OKTrack  6     Filename G:\0.99\Louis-Antoine Dornel - Six Suittes en Trio (2008) [FLAC]\06 - Suitte in E minor - Passacaille.wav     Peak level 64.4 %     Track quality 100.0 %     Test CRC 882E14B6     Copy CRC 882E14B6     Track not present in AccurateRip database     Copy OKTrack  7     Filename G:\0.99\Louis-Antoine Dornel - Six Suittes en Trio (2008) [FLAC]\07 - Suitte in A major - Prelude.wav     Pre-gap length  0:00:05.10     Peak level 65.6 %     Track quality 100.0 %     Test CRC B70E3651     Copy CRC B70E3651     Accurately ripped (confidence 1)  [684AF82D]     Copy OKTrack  8     Filename G:\0.99\Louis-Antoine Dornel - Six Suittes en Trio (2008) [FLAC]\08 - Suitte in A major - Allemande.wav     Peak level 74.2 %     Track quality 100.0 %     Test CRC EABB773F     Copy CRC EABB773F     Accurately ripped (confidence 1)  [B373AD14]     Copy OKTrack  9     Filename G:\0.99\Louis-Antoine Dornel - Six Suittes en Trio (2008) [FLAC]\09 - Suitte in A major - Rondeau.wav     Peak level 34.5 %     Track quality 100.0 %     Test CRC 6905171A     Copy CRC 6905171A     Accurately ripped (confidence 1)  [08F4D05E]     Copy OKTrack 10     Filename G:\0.99\Louis-Antoine Dornel - Six Suittes en Trio (2008) [FLAC]\10 - Suitte in A major - Sarabande.wav     Peak level 49.2 %     Track quality 100.0 %     Test CRC 4B88C3D5     Copy CRC 4B88C3D5     Accurately ripped (confidence 1)  [68E0A9AC]     Copy OKTrack 11     Filename G:\0.99\Louis-Antoine Dornel - Six Suittes en Trio (2008) [FLAC]\11 - Suitte in A major - Fantaisie.wav     Peak level 49.8 %     Track quality 100.0 %     Test CRC FF4E0FB8     Copy CRC FF4E0FB8     Accurately ripped (confidence 1)  [BFEA238C]     Copy OKTrack 12     Filename G:\0.99\Louis-Antoine Dornel - Six Suittes en Trio (2008) [FLAC]\12 - Suitte in A major - Chaconne.wav     Peak level 62.6 %     Track quality 100.0 %     Test CRC 11015381     Copy CRC 11015381     Accurately ripped (confidence 1)  [73DFEA0A]     Copy OKTrack 13     Filename G:\0.99\Louis-Antoine Dornel - Six Suittes en Trio (2008) [FLAC]\13 - Suitte in A major - Rigodons I, II.wav     Peak level 54.3 %     Track quality 100.0 %     Test CRC 0AC23164     Copy CRC 0AC23164     Track not present in AccurateRip database     Copy OKTrack 14     Filename G:\0.99\Louis-Antoine Dornel - Six Suittes en Trio (2008) [FLAC]\14 - Suitte in D major - Ouverture.wav     Pre-gap length  0:00:05.38     Peak level 84.1 %     Track quality 100.0 %     Test CRC A22F2014     Copy CRC A22F2014     Accurately ripped (confidence 1)  [FCD4B55E]     Copy OKTrack 15     Filename G:\0.99\Louis-Antoine Dornel - Six Suittes en Trio (2008) [FLAC]\15 - Suitte in D major - Sarabande.wav     Peak level 46.3 %     Track quality 100.0 %     Test CRC 64BA280B     Copy CRC 64BA280B     Accurately ripped (confidence 1)  [A059D058]     Copy OKTrack 16     Filename G:\0.99\Louis-Antoine Dornel - Six Suittes en Trio (2008) [FLAC]\16 - Suitte in D major - Gavotte.wav     Peak level 56.2 %     Track quality 100.0 %     Test CRC CF86D9F5     Copy CRC CF86D9F5     Accurately ripped (confidence 1)  [0EB15434]     Copy OKTrack 17     Filename G:\0.99\Louis-Antoine Dornel - Six Suittes en Trio (2008) [FLAC]\17 - Suitte in D major - Chaconne.wav     Peak level 69.1 %     Track quality 100.0 %     Test CRC CC4098C3     Copy CRC CC4098C3     Accurately ripped (confidence 1)  [CDEF1EC3]     Copy OKTrack 18     Filename G:\0.99\Louis-Antoine Dornel - Six Suittes en Trio (2008) [FLAC]\18 - Suitte in D major - Rigodons I, II.wav     Peak level 57.7 %     Track quality 100.0 %     Test CRC A7DDAC63     Copy CRC A7DDAC63     Track not present in AccurateRip database     Copy OKTrack 19     Filename G:\0.99\Louis-Antoine Dornel - Six Suittes en Trio (2008) [FLAC]\19 - Suitte in A minor - Ouverture.wav     Pre-gap length  0:00:05.22     Peak level 81.3 %     Track quality 99.9 %     Test CRC 671BD2C6     Copy CRC 671BD2C6     Accurately ripped (confidence 1)  [5CC610EF]     Copy OKTrack 20     Filename G:\0.99\Louis-Antoine Dornel - Six Suittes en Trio (2008) [FLAC]\20 - Suitte in A minor - Air Tendre.wav     Peak level 87.7 %     Track quality 100.0 %     Test CRC 96DC59CD     Copy CRC 96DC59CD     Accurately ripped (confidence 1)  [370AD003]     Copy OKTrack 21     Filename G:\0.99\Louis-Antoine Dornel - Six Suittes en Trio (2008) [FLAC]\21 - Suitte in A minor - Rondeau.wav     Peak level 58.5 %     Track quality 100.0 %     Test CRC 19103B1C     Copy CRC 19103B1C     Accurately ripped (confidence 1)  [281DB054]     Copy OKTrack 22     Filename G:\0.99\Louis-Antoine Dornel - Six Suittes en Trio (2008) [FLAC]\22 - Suitte in A minor - Air en Loure.wav     Peak level 57.1 %     Track quality 100.0 %     Test CRC 8DDDD2B3     Copy CRC 8DDDD2B3     Accurately ripped (confidence 1)  [CCACA256]     Copy OKTrack 23     Filename G:\0.99\Louis-Antoine Dornel - Six Suittes en Trio (2008) [FLAC]\23 - Suitte in A minor - Caprice.wav     Peak level 67.1 %     Track quality 100.0 %     Test CRC 8B28232B     Copy CRC 8B28232B     Accurately ripped (confidence 1)  [D5CA972E]     Copy OKTrack 24     Filename G:\0.99\Louis-Antoine Dornel - Six Suittes en Trio (2008) [FLAC]\24 - Suitte in A minor - Gigue.wav     Peak level 79.2 %     Track quality 100.0 %     Test CRC A73AE943     Copy CRC A73AE943     Track not present in AccurateRip database     Copy OKTrack 25     Filename G:\0.99\Louis-Antoine Dornel - Six Suittes en Trio (2008) [FLAC]\25 - Suitte in G major - Ouverture.wav     Pre-gap length  0:00:07.10     Peak level 79.7 %     Track quality 100.0 %     Test CRC BD21B165     Copy CRC BD21B165     Accurately ripped (confidence 1)  [586288C4]     Copy OKTrack 26     Filename G:\0.99\Louis-Antoine Dornel - Six Suittes en Trio (2008) [FLAC]\26 - Suitte in G major - Air Grave.wav     Peak level 59.9 %     Track quality 100.0 %     Test CRC 1F6A17CC     Copy CRC 1F6A17CC     Accurately ripped (confidence 1)  [FB1C53DE]     Copy OKTrack 27     Filename G:\0.99\Louis-Antoine Dornel - Six Suittes en Trio (2008) [FLAC]\27 - Suitte in G major - Rondeau, Autre Rondeau.wav     Peak level 68.6 %     Track quality 100.0 %     Test CRC 46BC43CC     Copy CRC 46BC43CC     Accurately ripped (confidence 1)  [2C4C3833]     Copy OKTrack 28     Filename G:\0.99\Louis-Antoine Dornel - Six Suittes en Trio (2008) [FLAC]\28 - Suitte in G major - Plainte.wav     Peak level 64.7 %     Track quality 100.0 %     Test CRC 9E1E5CF1     Copy CRC 9E1E5CF1     Accurately ripped (confidence 1)  [2CD7A4A1]     Copy OKTrack 29     Filename G:\0.99\Louis-Antoine Dornel - Six Suittes en Trio (2008) [FLAC]\29 - Suitte in G major - Gigue.wav     Peak level 54.8 %     Track quality 100.0 %     Test CRC 590E07C0     Copy CRC 590E07C0     Track not present in AccurateRip database     Copy OKTrack 30     Filename G:\0.99\Louis-Antoine Dornel - Six Suittes en Trio (2008) [FLAC]\30 - Suitte in E minor - Prelude.wav     Pre-gap length  0:00:03.88     Peak level 85.6 %     Track quality 100.0 %     Test CRC 5274154F     Copy CRC 5274154F     Accurately ripped (confidence 1)  [53D44EAA]     Copy OKTrack 31     Filename G:\0.99\Louis-Antoine Dornel - Six Suittes en Trio (2008) [FLAC]\31 - Suitte in E minor - Allemande.wav     Peak level 53.1 %     Track quality 100.0 %     Test CRC E23B2EB4     Copy CRC E23B2EB4     Accurately ripped (confidence 1)  [A715D67C]     Copy OKTrack 32     Filename G:\0.99\Louis-Antoine Dornel - Six Suittes en Trio (2008) [FLAC]\32 - Suitte in E minor - Ritournelle.wav     Peak level 50.1 %     Track quality 100.0 %     Test CRC 008347D7     Copy CRC 008347D7     Accurately ripped (confidence 1)  [3D12C557]     Copy OKTrack 33     Filename G:\0.99\Louis-Antoine Dornel - Six Suittes en Trio (2008) [FLAC]\33 - Suitte in E minor - Rondeau.wav     Peak level 60.9 %     Track quality 100.0 %     Test CRC BCFDA19F     Copy CRC BCFDA19F     Accurately ripped (confidence 1)  [9D2A1CD7]     Copy OKTrack 34     Filename G:\0.99\Louis-Antoine Dornel - Six Suittes en Trio (2008) [FLAC]\34 - Suitte in E minor - Menuet.wav     Peak level 55.6 %     Track quality 100.0 %     Test CRC 2F10F17E     Copy CRC 2F10F17E     Accurately ripped (confidence 1)  [DC43BC6B]     Copy OKTrack 35     Filename G:\0.99\Louis-Antoine Dornel - Six Suittes en Trio (2008) [FLAC]\35 - Suitte in E minor - Chaconne.wav     Peak level 67.5 %     Track quality 100.0 %     Test CRC 27DA0A58     Copy CRC 27DA0A58     Accurately ripped (confidence 1)  [262C3763]     Copy OK30 track(s) accurately ripped 5 track(s) not present in the AccurateRip databaseSome tracks could not be verified as accurateNo errors occurredEnd of status report

Содержание индексной карты (.CUE)

[pre]REM GENRE ClassicalREM DATE 2008REM DISCID F0103023REM COMMENT "ExactAudioCopy v0.99pb4"PERFORMER "Musica Barocca"TITLE "Louis-Antoine Dornel - Six Suittes en Trio"FILE "01 - Suitte in E minor - Pr
[Профиль] [ЛС]
Показать сообщения:    
Ответить на тему

Текущее время: Сегодня 11:56

Часовой пояс: GMT + 3



Вы не можете начинать темы
Вы не можете отвечать на сообщения
Вы не можете редактировать свои сообщения
Вы не можете удалять свои сообщения
Вы не можете голосовать в опросах
Вы не можете прикреплять файлы к сообщениям
Вы не можете скачивать файлы