(Calypso) King Short Shirt - Ghetto Vibes - 2003, FLAC (tracks+.cue) lossless

Ответить на тему
 
Автор Сообщение

Ryeland ®

Стаж: 3 года 2 месяца

Сообщений: 4

Пост 12-Янв-2017 12:40

[Цитировать]

King Short Shirt / Ghetto Vibes
Жанр: Calypso
Страна-производитель диска: USA
Год издания диска: 2003
Издатель (лейбл): A&B Records
Номер по каталогу: 0182
Аудиокодек: FLAC
Тип рипа: tracks+.cue
Битрейт аудио: lossless
Источник: собственный рип
Наличие сканов в содержимом раздачи: нет
Треклист:
1.TOURIST LEGGO (McLean Emanuel)
2.VIVIAN RICHARDS (McLean Emanuel)
3.HAND OFF HAEMONITES (McLean Emanuel)
4.NO PROMISES (McLean Emanuel)
5.POWER & AUTHORITY (McLean Emanuel)
6.NOBODY GO RUN ME (McLean Emanuel)
7.INSPITE OF ALL (McLean Emanuel)
8.WHEN (McLean Emanuel)
9.FANTASY (McLean Emanuel)
10. CARNIVAL '76 (McLean Emanuel)
Лог создания рипа
Exact Audio Copy V1.3 from 2. September 2016
EAC extraction logfile from 11. January 2017, 12:34
King Short Shirt / Ghetto Vibes
Used drive : HL-DT-STDVDRAM GH24NSD1 Adapter: 1 ID: 1
Read mode : Secure
Utilize accurate stream : Yes
Defeat audio cache : Yes
Make use of C2 pointers : No
Read offset correction : 6
Overread into Lead-In and Lead-Out : No
Fill up missing offset samples with silence : Yes
Delete leading and trailing silent blocks : No
Null samples used in CRC calculations : Yes
Used interface : Native Win32 interface for Win NT & 2000
Gap handling : Appended to previous track
Used output format : User Defined Encoder
Selected bitrate : 768 kBit/s
Quality : High
Add ID3 tag : No
Command line compressor : C:\Program Files (x86)\Exact Audio Copy\FLAC\FLAC.EXE
Additional command line options : -6 -V -T "ARTIST=%artist%" -T "TITLE=%title%" -T "ALBUM=%albumtitle%" -T "DATE=%year%" -T "TRACKNUMBER=%tracknr%" -T "GENRE=%genre%" -T "COMMENT=%comment%" -T "BAND=%albuminterpret%" -T "ALBUMARTIST=%albuminterpret%" -T "COMPOSER=%composer%" %haslyrics%--tag-from-file=LYRICS="%lyricsfile%"%haslyrics% -T "DISCNUMBER=%cdnumber%" -T "TOTALDISCS=%totalcds%" -T "TOTALTRACKS=%numtracks%" %hascover%--picture="%coverfile%"%hascover% %source% -o %dest%
TOC of the extracted CD
Track | Start | Length | Start sector | End sector
---------------------------------------------------------
1 | 0:00.00 | 3:50.65 | 0 | 17314
2 | 3:50.65 | 3:21.67 | 17315 | 32456
3 | 7:12.57 | 3:57.25 | 32457 | 50256
4 | 11:10.07 | 3:20.35 | 50257 | 65291
5 | 14:30.42 | 3:36.25 | 65292 | 81516
6 | 18:06.67 | 4:59.73 | 81517 | 104014
7 | 23:06.65 | 4:20.40 | 104015 | 123554
8 | 27:27.30 | 4:10.72 | 123555 | 142376
9 | 31:38.27 | 3:31.58 | 142377 | 158259
10 | 35:10.10 | 3:42.58 | 158260 | 174967
Track 1
Filename C:\EAC\01 Tourist Leggo.wav
Pre-gap length 0:00:02.00
Peak level 100.0 %
Extraction speed 4.9 X
Track quality 100.0 %
Test CRC 64BF7562
Copy CRC 64BF7562
Cannot be verified as accurate (confidence 1) [D0E2EA20], AccurateRip returned [45600D28] (AR v2)
Copy OK
Track 2
Filename C:\EAC\02 Vivian Richards.wav
Peak level 100.0 %
Extraction speed 5.2 X
Track quality 100.0 %
Test CRC 9A32FF70
Copy CRC 9A32FF70
Cannot be verified as accurate (confidence 1) [F5DE6A7E], AccurateRip returned [7C0684A7] (AR v2)
Copy OK
Track 3
Filename C:\EAC\03 Hands Off Harmonites.wav
Peak level 100.0 %
Extraction speed 5.7 X
Track quality 100.0 %
Test CRC F85A4799
Copy CRC F85A4799
Cannot be verified as accurate (confidence 1) [CD9CD564], AccurateRip returned [CD3C5D99] (AR v2)
Copy OK
Track 4
Filename C:\EAC\04 No Promises.wav
Peak level 100.0 %
Extraction speed 5.8 X
Track quality 100.0 %
Test CRC 5D5404C8
Copy CRC 5D5404C8
Cannot be verified as accurate (confidence 1) [4A60459F], AccurateRip returned [8BC1E5EB] (AR v2)
Copy OK
Track 5
Filename C:\EAC\05 Power & Authority.wav
Peak level 100.0 %
Extraction speed 6.2 X
Track quality 100.0 %
Test CRC E2CF4437
Copy CRC E2CF4437
Cannot be verified as accurate (confidence 1) [83E2C20E], AccurateRip returned [E75A1514] (AR v2)
Copy OK
Track 6
Filename C:\EAC\06 Nobody Go Run Me.wav
Peak level 100.0 %
Extraction speed 6.8 X
Track quality 100.0 %
Test CRC 3E4B8EAB
Copy CRC 3E4B8EAB
Cannot be verified as accurate (confidence 1) [0C39C130], AccurateRip returned [3616F03D] (AR v2)
Copy OK
Track 7
Filename C:\EAC\07 In Spite Off All.wav
Peak level 100.0 %
Extraction speed 7.1 X
Track quality 100.0 %
Test CRC 0D2F41BC
Copy CRC 0D2F41BC
Cannot be verified as accurate (confidence 1) [673CD635], AccurateRip returned [5557F517] (AR v2)
Copy OK
Track 8
Filename C:\EAC\08 When.wav
Peak level 100.0 %
Extraction speed 6.2 X
Track quality 99.9 %
Test CRC AFEC69A7
Copy CRC AFEC69A7
Cannot be verified as accurate (confidence 1) [9A29798C], AccurateRip returned [1A6446A7] (AR v2)
Copy OK
Track 9
Filename C:\EAC\09 Fantasy.wav
Peak level 100.0 %
Extraction speed 7.5 X
Track quality 100.0 %
Test CRC 58F1A1AF
Copy CRC 58F1A1AF
Cannot be verified as accurate (confidence 1) [26D5D0B7], AccurateRip returned [4939F4CE] (AR v2)
Copy OK
Track 10
Filename C:\EAC\10 Carnival 76.wav
Peak level 100.0 %
Extraction speed 6.3 X
Track quality 99.9 %
Test CRC 6C16499B
Copy CRC 6C16499B
Cannot be verified as accurate (confidence 1) [D9CB0B84], AccurateRip returned [FFAA6C8E] (AR v2)
Copy OK
No tracks could be verified as accurate
You may have a different pressing from the one(s) in the database
No errors occurred
End of status report
---- CUETools DB Plugin V2.1.6
[CTDB TOCID: K0awxO23S1f3cqgangncbYDMCBE-] disk not present in database
Submit result: K0awxO23S1f3cqgangncbYDMCBE- has been uploaded
==== Log checksum 5AA6E24BA15F35F6EB10D90D9AFF666867C22852A8F3FA748D3367336F2FD008 ====
Содержание индексной карты (.CUE)
REM DATE 1976
REM DISCID 7D091C0A
REM COMMENT "ExactAudioCopy v1.3"
PERFORMER "King Short Shirt"
TITLE "Ghetto Vibes"
REM COMPOSER ""
FILE "01 Tourist Leggo.wav" WAVE
TRACK 01 AUDIO
TITLE "Tourist Leggo"
PERFORMER "King Short Shirt"
REM COMPOSER ""
INDEX 01 00:00:00
FILE "02 Vivian Richards.wav" WAVE
TRACK 02 AUDIO
TITLE "Vivian Richards"
PERFORMER "King Short Shirt"
REM COMPOSER ""
INDEX 01 00:00:00
FILE "03 Hands Off Harmonites.wav" WAVE
TRACK 03 AUDIO
TITLE "Hands Off Harmonites"
PERFORMER "King Short Shirt"
REM COMPOSER ""
INDEX 01 00:00:00
FILE "04 No Promises.wav" WAVE
TRACK 04 AUDIO
TITLE "No Promises"
PERFORMER "King Short Shirt"
REM COMPOSER ""
INDEX 01 00:00:00
FILE "05 Power & Authority.wav" WAVE
TRACK 05 AUDIO
TITLE "Power & Authority"
PERFORMER "King Short Shirt"
REM COMPOSER ""
INDEX 01 00:00:00
FILE "06 Nobody Go Run Me.wav" WAVE
TRACK 06 AUDIO
TITLE "Nobody Go Run Me"
PERFORMER "King Short Shirt"
REM COMPOSER ""
INDEX 01 00:00:00
FILE "07 In Spite Off All.wav" WAVE
TRACK 07 AUDIO
TITLE "In Spite Off All"
PERFORMER "King Short Shirt"
REM COMPOSER ""
INDEX 01 00:00:00
FILE "08 When.wav" WAVE
TRACK 08 AUDIO
TITLE "When"
PERFORMER "King Short Shirt"
REM COMPOSER ""
INDEX 01 00:00:00
FILE "09 Fantasy.wav" WAVE
TRACK 09 AUDIO
TITLE "Fantasy"
PERFORMER "King Short Shirt"
REM COMPOSER ""
INDEX 01 00:00:00
FILE "10 Carnival 76.wav" WAVE
TRACK 10 AUDIO
TITLE "Carnival 76"
PERFORMER "King Short Shirt"
REM COMPOSER ""
INDEX 01 00:00:00

Особая благодарность Chris Cook за составление релиза
[Профиль] [ЛС]
Показать сообщения:    
Ответить на тему

Текущее время: Сегодня 08:50

Часовой пояс: GMT + 3



Вы не можете начинать темы
Вы не можете отвечать на сообщения
Вы не можете редактировать свои сообщения
Вы не можете удалять свои сообщения
Вы не можете голосовать в опросах
Вы не можете прикреплять файлы к сообщениям
Вы не можете скачивать файлы