Из одной комнаты / One Room [TV] [01 из 12] [Без хардсаба] [RUS(ext), JAP, SUB] [2017, Приключения, Повседневность, HDTVRip] [720p]

Ответить на тему
 
Автор Сообщение

anaray ®

Стаж: 4 года 7 месяцев

Сообщений: 1

Пост 12-Янв-2017 12:40

[Цитировать]

-Из одной комнаты / One Room / ワンルーム- Год выпуска: 2017 г.
Страна: Япония
Жанр: Приключения, Повседневность-Тип: TV-Продолжительность: 12 эп. по 4 мин.
Режиссер: Ота Масахико
Студия: Dogakobo-Перевод:
  • Русские субтитры от Mira Yoo & 3viaL-Озвучка:
  • Одноголосая от (жен) Brigella (SovetRomantica) -sample-Описание:
    Серия короткометражек, которые будут рассказывать истории о трех сестрах...-Информационные ссылки: World Art || AniDB || MAL-Качество: HDTVRip | Рип: [Ohys-Raws]
    Тип релиза: Без хардсаба
    Формат видео: MP4
    Наличие линковки: Нет
    Видео: AVC, 1280x720, ~2106 kbps, 23.976 fps [8 bit]
    Аудио:
    1. Russian AC3, 48.0 KHz, 192 kbps, 2 ch (внешние) - [SovetRomantica];
    2. Japanese AAC, 48.0 KHz, ~212 kbps, 2 ch;
    Субтитры:
  • Russian: ASS, внешние;
    Подробные тех. данные
General
Format : MPEG-4
Format profile : Base Media
Codec ID : isom
File size : 66.4 MiB
Duration : 4mn 0s
Overall bit rate mode : Variable
Overall bit rate : 2 321 Kbps
Encoded date : UTC 2017-01-11 13:52:08
Tagged date : UTC 2017-01-11 13:52:08
Video #1
ID : 1
Format : AVC
Format/Info : Advanced Video Codec
Format profile : Main@L4.1
Format settings, CABAC : Yes
Format settings, ReFrames : 4 frames
Codec ID : avc1
Codec ID/Info : Advanced Video Coding
Duration : 3mn 59s
Bit rate : 2 106 Kbps
Maximum bit rate : 8 123 Kbps
Width : 1 280 pixels
Height : 720 pixels
Display aspect ratio : 16:9
Frame rate mode : Constant
Frame rate : 23.976 fps
Color space : YUV
Chroma subsampling : 4:2:0
Bit depth : 8 bits
Scan type : Progressive
Bits/(Pixel*Frame) : 0.095
Stream size : 60.2 MiB (91%)
Writing library : x264 core 148 r2744 b97ae06
Encoding settings : cabac=1 / ref=3 / deblock=1:0:0 / analyse=0x1:0x111 / me=hex / subme=7 / psy=1 / psy_rd=1.00:0.00 / mixed_ref=1 / me_range=16 / chroma_me=1 / trellis=1 / 8x8dct=0 / cqm=0 / deadzone=21,11 / fast_pskip=1 / chroma_qp_offset=-2 / threads=12 / lookahead_threads=2 / sliced_threads=0 / nr=0 / decimate=1 / interlaced=0 / bluray_compat=0 / constrained_intra=0 / bframes=3 / b_pyramid=2 / b_adapt=1 / b_bias=0 / direct=1 / weightb=1 / open_gop=0 / weightp=2 / keyint=240 / keyint_min=1 / scenecut=40 / intra_refresh=0 / rc_lookahead=40 / rc=crf / mbtree=1 / crf=20.0 / qcomp=0.60 / qpmin=0 / qpmax=69 / qpstep=4 / ip_ratio=1.40 / aq=1:1.50
Encoded date : UTC 2017-01-11 13:52:08
Tagged date : UTC 2017-01-11 13:52:08
Color primaries : BT.709
Transfer characteristics : BT.709
Matrix coefficients : BT.709
Audio #2
ID : 2
Format : AAC
Format/Info : Advanced Audio Codec
Format profile : LC
Codec ID : 40
Duration : 4mn 0s
Bit rate mode : Variable
Bit rate : 212 Kbps
Maximum bit rate : 248 Kbps
Channel(s) : 2 channels
Channel positions : Front: L R
Sampling rate : 48.0 KHz
Compression mode : Lossy
Stream size : 6.05 MiB (9%)
Language : Japanese
Encoded date : UTC 2017-01-11 13:50:02
Tagged date : UTC 2017-01-11 13:52:08
Список эпизодов-01. Просьба Ханасаки Юи / Hanasaka Yui Makes a Request-
Скриншоты
Особая благодарность pcab1829 за составление релиза
[Профиль] [ЛС]
Показать сообщения:    
Ответить на тему

Текущее время: Сегодня 02:26

Часовой пояс: GMT + 3



Вы не можете начинать темы
Вы не можете отвечать на сообщения
Вы не можете редактировать свои сообщения
Вы не можете удалять свои сообщения
Вы не можете голосовать в опросах
Вы не можете прикреплять файлы к сообщениям
Вы не можете скачивать файлы