Ван Пис: Золото / One Piece Film: Gold [Movie] [Без хардсаба] [JAP, SUB] [2016, приключения, комедия, фэнтези, BDRip] [720p]

Ответить на тему
 
Автор Сообщение

kostya999 ®

Стаж: 4 года 11 месяцев

Сообщений: 1

Пост 12-Янв-2017 12:40

[Цитировать]

Ван Пис: Золото / One Piece Film: Gold
-Страна: Япония
Год выпуска: 2016
Жанр: приключения, комедия, фэнтези
Тип: Movie
Продолжительность: 127 мин.-Режиссер: Хироаки Миямото
Студия: Toei Animation-Субтитры: Русские (внешние) ASS [Alvakarp]
Перевод: BadNewsZiggy / Редакция: Angara / Оформление: 3viaL-Описание: Команда Мугивары попадает на огромный лайнер Гран Тэзоро, который оказывается настоящим городом развлечений с непрекращающимися ни днем ни ночью шоу и казино, которое собирают богатейших людей со всего мира. Гран Тэзоро - это абсолютно неприкосновенная зона, признаная Мировым Правительством, поэтому будь то пират или дозорный, для всех в казино действуют одни правила.
Там Луффи и его друзья встречают хозяина корабля, человека, который с помощью силы золота подчинил и Мировое правительство и Мировую знать Тэнрюбито, Гильда Тэзоро. А за кулисами роскошного города развлечений стоит непреодолимая жажда господства, в водоворот которой попали слишком многие, и жестокий закон казино Гран Тэзоро: "Обманутый считается проигравшим". Что есть свобода и подчинение? В поисках ответа на этот вопрос Луффи и его друзья ставят на кон свою веру и жизни.-Качество: BDRip 720p [SOFCJ-Raws]
Тип релиза: Без хардсаба
Формат видео: MKV
Наличие линковки: Нет
Видео: h264, 1280x720, 10bit, 23.976fps, 4799 kbps
Аудио: JAP DTS, 960 kbps, 48000Hz, stereo, 2ch, 16 bits
Скриншоты Подробные тех. данные
avdump
Код:
Duration: 02:00:07 (7207.2)
Track #1: video
lang: jpn (2)
codc: V_MPEG4/ISO/AVC -> H264/AVC (22)
reso: 1280x720 -> 16:9
fram: 23.976 fps
rate: 4799 kbps (4799.24)
dura: 02:00:07 (7207.16)
size: 4.03 GB (4323609623)
Track #2: audio
lang: jpn -> Japanese (2)
codc: A_DTS -> DTS (13)
chan: 2 -> Stereo
samp: 48000 Hz
rate: 948 kbps (947.58)
dura: 02:00:07 (7207.15)
size: 814.12 MB (853664954)
Sizes: (check sanity)
disk: 4.82 GB (5179254050)
trac: 841.43 MB (882307281) [based on track size]
bitr: 4.82 GB (5177275995) [based on bitrate]
tdif: 4.00 GB (4296946769) 82.96%
bdif: 1.89 MB (1978054) 0.03%
MediaInfo
Код:
Формат                                   : Matroska
Версия формата                           : Version 4 / Version 2
Размер файла                             : 4,82 Гбайт
Продолжительность                        : 2 ч. 0 м.
Общий поток                              : 5749 Кбит/сек
Название фильма                          : [SOFCJ-Raws] One Piece Film Gold (BDRip 1280x720 x264 10bit DTS-HD)
Дата кодирования                         : UTC 2017-01-05 12:53:22
Программа кодирования                    : mkvmerge v7.8.0 ('River Man') 32bit built on Apr  3 2015 12:11:22
Библиотека кодирования                   : libebml v1.3.1 + libmatroska v1.4.2
[br]
Видео
Идентификатор                            : 1
Формат                                   : AVC
Формат/Информация                        : Advanced Video Codec
Профиль формата                          : High 10@L4.1
Параметр CABAC формата                   : Да
Параметр ReFrames формата                : 12 кадров
Идентификатор кодека                     : V_MPEG4/ISO/AVC
Продолжительность                        : 2 ч. 0 м.
Битрейт                                  : 4799 Кбит/сек
Ширина                                   : 1280 пикселей
Высота                                   : 720 пикселей
Соотношение сторон                       : 16:9
Режим частоты кадров                     : Постоянный
Частота кадров                           : 23,976 (24000/1001) кадра/сек
Цветовое пространство                    : YUV
Субдискретизация насыщенности            : 4:2:0
Битовая глубина                          : 10 бит
Тип развёртки                            : Прогрессивная
Бит/(Пиксели*Кадры)                      : 0.217
Размер потока                            : 4,03 Гбайт (83%)
Библиотека кодирования                   : x264 core 148 r2744kMod b97ae06
Настройки программы                      : cabac=1 / ref=12 / deblock=1:-2:-2 / analyse=0x3:0x133 / me=umh / subme=10 / psy=1 / fade_compensate=0.00 / psy_rd=1.00:0.00 / mixed_ref=1 / me_range=32 / chroma_me=1 / trellis=2 / 8x8dct=1 / cqm=0 / deadzone=21,11 / fast_pskip=0 / chroma_qp_offset=-2 / threads=12 / lookahead_threads=2 / sliced_threads=0 / nr=0 / decimate=0 / interlaced=0 / bluray_compat=0 / constrained_intra=0 / bframes=8 / b_pyramid=2 / b_adapt=2 / b_bias=0 / direct=1 / weightb=1 / open_gop=0 / weightp=2 / keyint=250 / keyint_min=23 / scenecut=40 / intra_refresh=0 / rc=crf / mbtree=0 / crf=15.0000 / qcomp=0.60 / qpmin=0 / qpmax=81 / qpstep=4 / ip_ratio=1.40 / pb_ratio=1.30 / aq=1:1.00
Язык                                     : Japanese
Default                                  : Да
Forced                                   : Нет
Цветовой диапазон                        : Limited
Основные цвета                           : BT.709
Характеристики трансфера                 : BT.709
Коэффициенты матрицы                     : BT.709
[br]
Аудио
Идентификатор                            : 2
Формат                                   : DTS
Формат/Информация                        : Digital Theater Systems
Профиль формата                          : MA / Core
Режим                                    : 16
Параметр Endianness формата              : Big
Идентификатор кодека                     : A_DTS
Продолжительность                        : 2 ч. 0 м.
Вид битрейта                             : Переменный / Постоянный
Битрейт                                  : 960 Кбит/сек / 255 Кбит/сек
Каналы                                   : 2 канала
Расположение каналов                     : Front: L R
Частота                                  : 48,0 КГц
Частота кадров                           : 93,750 кадра/сек (512 spf)
Битовая глубина                          : 16 бит
Метод сжатия                             : Без потерь / Lossy
Размер потока                            : 813 Мбайт (16%)
Язык                                     : Japanese
Default                                  : Да
Forced                                   : Нет
Отличие от существующих раздач
[url=viewtopic.php?t=5337328]http://emiz.biz/viewtopic.php?t=5337328[/url] - там BDRemux, тут BDRip 720p

Особая благодарность SOFCJ за составление релиза
[Профиль] [ЛС]
Показать сообщения:    
Ответить на тему

Текущее время: Сегодня 08:51

Часовой пояс: GMT + 3



Вы не можете начинать темы
Вы не можете отвечать на сообщения
Вы не можете редактировать свои сообщения
Вы не можете удалять свои сообщения
Вы не можете голосовать в опросах
Вы не можете прикреплять файлы к сообщениям
Вы не можете скачивать файлы