Онихей / Onihei (Мия Сигэюки) [TV] [1 из 13] [Без хардсаба] [JAP+SUB] [2017, приключения, история, HDTVRip] [720p]

Ответить на тему
 
Автор Сообщение

korazov ®

Стаж: 1 год 3 месяца

Сообщений: 1

Пост 12-Янв-2017 12:40

[Цитировать]

Онихей / Oniheii
Страна: Япония
Год выпуска: 2017
Жанр: приключения
Тип: TV
Продолжительность: 13 эп. по 25 мин.
Режиссер: Мия Сигэюки
Студия: Studio M2-Описание: 1783 год, третий год эпохи Тэммей.
Онихей, получивший при рождении имя Хэйзо Хасэгава, в юности был ненадежным и распущенным богачом, от которого сложно было ждать великих свершений. Однако унаследовав титул отца и получив назначение в особую полицию, расследовавшую в Эдо грабежи и поджоги, у Хэйзо довольно скоро проявились скрытые таланты.
Вступив в должность, он принялся наводить на улицах Эдо порядки силами опытных самураев, внушая преступникам страх и умело вербуя среди них информаторов. Именно тогда Хэйзо и прозвали «Онихеем» (то есть «Демоном Хэйзо»), причем сделали это его же враги. Онихей, успешно расследовавший даже самые сложные дела, сумел поднять работу полиции на новую высоту, и его отряд самураев обрел славу чуть ли не элитных сил. Правда, столь смелые действия повлекли за собой ответное сопротивление со стороны преступников, которым вовсе не хотелось отвечать за свои злодеяния.-Качество: HDTVRip
Тип релиза: Без хардсаба
Формат видео: MKV
Наличие линковки: Нет
Релиз/Автор рипа: Leopard-Raws
Видео: AVC, 1280x720, 1980 kbps, 23,976 fps, 8 bit
Аудио: AAC, 48 KHz, 192 kbps, 2 ch Язык Японский
Субтитры 1: ASS, внешним файлом, русские. Перевод: Anku. Редакция: mutagenb
MI
Общее
Полное имя : D:\Видео\Аниме\Onihei\[Leopard-Raws] Onihei - 01 RAW (TX 1280x720 x264 AAC).mp4
Формат : MPEG-4
Профиль формата : Base Media
Идентификатор кодека : isom
Размер файла : 377 Мбайт
Продолжительность : 24 м.
Режим общего битрейта : Переменный
Общий поток : 2176 Кбит/сек
Дата кодирования : UTC 2017-01-10 15:08:22
Дата пометки : UTC 2017-01-10 15:08:22
Видео
Идентификатор : 1
Формат : AVC
Формат/Информация : Advanced Video Codec
Профиль формата : High@L4.1
Параметр CABAC формата : Да
Параметр ReFrames формата : 4 кадра
Идентификатор кодека : avc1
Идентификатор кодека/Информация : Advanced Video Coding
Продолжительность : 24 м.
Битрейт : 1980 Кбит/сек
Максимальный битрейт : 14,3 Мбит/сек
Ширина : 1280 пикселей
Высота : 720 пикселей
Соотношение сторон : 16:9
Режим частоты кадров : Постоянный
Частота кадров : 23,976 кадра/сек
Цветовое пространство : YUV
Субдискретизация насыщенности : 4:2:0
Битовая глубина : 8 бит
Тип развёртки : Прогрессивная
Бит/(Пиксели*Кадры) : 0.090
Размер потока : 343 Мбайт (91%)
Заголовок : 264:fps=23.976@GPAC0.5.2-DEV-rev376-g5eeb74d-master
Библиотека кодирования : x264 core 129 r2245+729M 1a52e03
Настройки программы : cabac=1 / ref=4 / deblock=1:1:-1 / analyse=0x3:0x113 / me=umh / subme=9 / psy=1 / fade_compensate=0.00 / psy_rd=1.00:0.00 / mixed_ref=1 / me_range=24 / chroma_me=1 / trellis=2 / 8x8dct=1 / cqm=0 / deadzone=21,11 / fast_pskip=1 / chroma_qp_offset=-2 / threads=8 / lookahead_threads=1 / sliced_threads=0 / nr=0 / decimate=1 / interlaced=0 / bluray_compat=0 / constrained_intra=0 / fgo=0 / bframes=9 / b_pyramid=2 / b_adapt=2 / b_bias=0 / direct=1 / weightb=1 / open_gop=0 / weightp=2 / keyint=240 / keyint_min=24 / scenecut=40 / intra_refresh=0 / rc=crf / mbtree=0 / crf=18.5 / qcomp=0.72 / qpmin=0 / qpmax=69 / qpstep=4 / ip_ratio=1.40 / pb_ratio=1.30 / aq=1:0.85
Дата кодирования : UTC 2017-01-10 15:08:22
Дата пометки : UTC 2017-01-10 15:08:24
Цветовой диапазон : Limited
Основные цвета : BT.709
Характеристики трансфера : BT.709
Коэффициенты матрицы : BT.709
Аудио
Идентификатор : 2
Формат : AAC
Формат/Информация : Advanced Audio Codec
Профиль формата : LC
Идентификатор кодека : 40
Продолжительность : 24 м.
Вид битрейта : Переменный
Битрейт : 192 Кбит/сек
Максимальный битрейт : 222 Кбит/сек
Каналы : 2 канала
Расположение каналов : Front: L R
Частота : 48,0 КГц
Метод сжатия : С потерями
Размер потока : 33,3 Мбайт (9%)
Язык : Japanese
Дата кодирования : UTC 2017-01-09 20:29:14
Дата пометки : UTC 2017-01-10 15:08:24
Список эпизодов
01. Tanbei of Chigashira
Скриншоты
Особая благодарность IamNot0k за составление релиза
[Профиль] [ЛС]
Показать сообщения:    
Ответить на тему

Текущее время: Сегодня 12:26

Часовой пояс: GMT + 3



Вы не можете начинать темы
Вы не можете отвечать на сообщения
Вы не можете редактировать свои сообщения
Вы не можете удалять свои сообщения
Вы не можете голосовать в опросах
Вы не можете прикреплять файлы к сообщениям
Вы не можете скачивать файлы