Приключения Флика / Жизнь букашки / Жизнь жуков / A Bug\'s Life (Джон Лассетер / John Lasseter, Эндрю Стэнтон / Andrew Stanton) [1998, США, мультфильм, BDRip] AVO (Визгунов) + Original Eng

Ответить на тему
 
Автор Сообщение

altmachine ®

Стаж: 3 года

Сообщений: 1

Пост 12-Янв-2017 12:40

[Цитировать]

Приключения Флика / Жизнь букашки / A Bug's Life
«An epic of miniature proportions»
Страна: США
Жанр: мультфильм
Продолжительность: 01:34:53
Год выпуска: 1998
Перевод: Авторский (одноголосый закадровый) Сергей Визгунов
Русские субтитры: нет
Режиссёр: Джон Лассетер / John Lasseter, Эндрю Стэнтон / Andrew Stanton
Роли озвучивали: Дэйв Фоли, Кевин Спейси, Джулия Луис-Дрейфус, Хайден Панеттьери, Филлис Диллер, Ричард Кайнд, Дэвид Хайд Пирс, Джо Рэнфт, Дэнис Лири, Джонатан Харрис
Описание: Действия картины происходят на острове, в колонии муравьев. Среди них особо выделяется изобретатель Флик. Муравьи занимались тем, что собирали дань в виде еды для кузнечиков.
Однажды Флик случайно сбросил в воду всю собранную в виде дани еду. Кузнечики в результате чего увеличили дань. Флик решил противостоять этому. Так началась освободительная борьба муравьев за независимость.
Доп. информация: Дорожка с С. Визгуновым синхронизирована и наложена ale_x2008 при помощи Sony Vegas и VirtualDubMod
За оцифрованную с VHS дорожку благодарим - d_rocker

Релиз
Семпл: https://yadi.sk/i/UmPdRmN038Z59g
Качество: BDRip
Формат: AVI
Видео: XviD build 65, 720x304 (2.37:1), 23.976 fps, 1730 kbps avg, 0.33 bit/pixel
Аудио: AC3 Dolby Digital, 48000Hz, 2/0 (L,R) ch (mono), 192.00 kbps avg
Аудио 2: AC3 Dolby Digital, 48000Hz, 2/0 (L,R) ch, 192.00 kbps avg Eng
Субтитры: нет
Подробные технические данные
Приключения Флика - A Bug's Life [by ale_x2008].avi
Format : AVI
Format/Info : Audio Video Interleave
File size : 1.41 GiB
Duration : 1 h 34 min
Overall bit rate : 2 129 kb/s
Movie name : Prikljuchenija.Flika.1998.RUS.BDRip.RERip.XviD.AC3.-HELLYWOOD
Director : Gummy
Writing application : VirtualDubMod 1.5.10.2 (build 2540/release)
Copyright : ale_x2008 | Edich2
Comment : RuTracker.org
Video
ID : 0
Format : MPEG-4 Visual
Format profile : Advanced Simple@L5
Format settings, BVOP : 2
Format settings, QPel : No
Format settings, GMC : No warppoints
Format settings, Matrix : Custom
Codec ID : XVID
Codec ID/Hint : XviD
Duration : 1 h 34 min
Bit rate : 1 731 kb/s
Width : 720 pixels
Height : 304 pixels
Display aspect ratio : 2.35:1
Frame rate : 23.976 (23976/1000) FPS
Color space : YUV
Chroma subsampling : 4:2:0
Bit depth : 8 bits
Scan type : Progressive
Compression mode : Lossy
Bits/(Pixel*Frame) : 0.330
Stream size : 1.15 GiB (81%)
Writing library : XviD 65
Audio #1
ID : 1
Format : AC-3
Format/Info : Audio Coding 3
Mode extension : CM (complete main)
Format settings, Endianness : Big
Codec ID : 2000
Duration : 1 h 34 min
Bit rate mode : Constant
Bit rate : 192 kb/s
Channel(s) : 2 channels
Channel positions : Front: L R
Sampling rate : 48.0 kHz
Frame rate : 31.250 FPS (1536 spf)
Compression mode : Lossy
Stream size : 130 MiB (9%)
Alignment : Split accross interleaves
Interleave, duration : 42 ms (1.00 video frame)
Interleave, preload duratio : 500 ms
Audio #2
ID : 2
Format : AC-3
Format/Info : Audio Coding 3
Mode extension : CM (complete main)
Format settings, Endianness : Big
Codec ID : 2000
Duration : 1 h 34 min
Bit rate mode : Constant
Bit rate : 192 kb/s
Channel(s) : 2 channels
Channel positions : Front: L R
Sampling rate : 48.0 kHz
Frame rate : 31.250 FPS (1536 spf)
Compression mode : Lossy
Stream size : 130 MiB (9%)
Alignment : Split accross interleaves
Interleave, duration : 42 ms (1.00 video frame)
Interleave, preload duratio : 500 ms
Скриншоты
Особая благодарность edich2 за составление релиза
[Профиль] [ЛС]
Показать сообщения:    
Ответить на тему

Текущее время: Сегодня 20:50

Часовой пояс: GMT + 3



Вы не можете начинать темы
Вы не можете отвечать на сообщения
Вы не можете редактировать свои сообщения
Вы не можете удалять свои сообщения
Вы не можете голосовать в опросах
Вы не можете прикреплять файлы к сообщениям
Вы не можете скачивать файлы