Единственный уцелевший / The One That Got Away (Пол Гринграсс / Paul Greengrass) [1996, Великобритания, Военный, исторический, TVRip] VO

Ответить на тему
 
Автор Сообщение

jaguarundi ®

Стаж: 5 лет 3 месяца

Сообщений: 3

Пост 12-Янв-2017 12:40

[Цитировать]

Единственный уцелевший / The One That Got Away
Страна: Великобритания
Жанр: Военный, исторический
Год выпуска: 1996
Продолжительность: 01:42:25
Перевод: Одноголосый закадровый
Cубтитры: нет
Режиссер: Пол Гринграсс Paul Gringrass
В ролях: Джоди Абрахамс
Ник Бримбл
Саймон Бурк
Дэвид Клэтворти
Джек Эллис
Сэм Хэлпенни
Андре Джейкобс
Стэфан Калифа
Пол МакГанн
Джордж Миддлкуп
Описание: Фильм рассказывает о реальной истории патруля «Браво-два-ноль» (Bravo Two Zero; B20) — позывной патруля Специальной авиационной службы (SAS) Британской Армии, действовавшего на территории Ирака во время войны в Персидском заливе (1991).
Это вариант фильма Браво два ноль (Буря в пустыне) ( [url=viewtopic.php?t=455291]http://emiz.biz/viewtopic.php?t=455291[/url] )
Доп. информация: Фильм записан с ТВ, начало фильма (несколько секунд) обрезаны.
Сэмпл: https://www.sendspace.com/file/tbff30
Качество видео: TVRip
Формат видео: MPG
Видео: MPEG Video, 720х576, 4:3, 25 кадров/сек, 8000 Кбит/сек
Аудио: MPEG Audio, 44,1 КГц, 224 Кбит/сек, 2 канала
MediaInfo
Общее
Полное имя : C:\Users\Оксана\Documents\honestech TVR\MP2_Dec28_170319_0.mpg
Формат : MPEG-PS
Размер файла : 6,05 Гбайт
Продолжительность : 1 ч. 42 м.
Режим общего битрейта : Постоянный
Общий поток : 8459 Кбит/сек
Библиотека кодирования : honestech
Видео
Идентификатор : 224 (0xE0)
Формат : MPEG Video
Версия формата : Version 2
Профиль формата : Main@Main
Параметр BVOP формата : Да
Параметр матрицы формата : По умолчанию
Параметр GOP формата : M=3, N=15
Продолжительность : 1 ч. 42 м.
Вид битрейта : Постоянный
Битрейт : 8000 Кбит/сек
Ширина : 720 пикселей
Высота : 576 пикселей
Соотношение сторон : 4:3
Частота кадров : 25,000 кадров/сек
Стандарт вещания : NTSC
Цветовое пространство : YUV
Субдискретизация насыщенности : 4:2:0
Битовая глубина : 8 бит
Тип развёртки : Прогрессивная
Метод сжатия : С потерями
Бит/(Пиксели*Кадры) : 0.772
Временной код первого кадра : 00:00:00:00
Оригинал временного кода : Group of pictures header
GOP, открыто/закрыто : Открыто
GOP, открыто/закрыто на первом кадре : Закрыто
Размер потока : 5,77 Гбайт (95%)
Библиотека кодирования : honestech
Основные цвета : BT.470 System M
Характеристики трансфера : BT.470 System M
Коэффициенты матрицы : BT.601
Аудио
Идентификатор : 192 (0xC0)
Формат : MPEG Audio
Версия формата : Version 1
Профиль формата : Layer 2
Продолжительность : 1 ч. 42 м.
Вид битрейта : Постоянный
Битрейт : 224 Кбит/сек
Каналы : 2 канала
Частота : 44,1 КГц
Метод сжатия : С потерями
Задержка видео : -40 мс.
Размер потока : 164 Мбайт (3%)
Скриншоты
Особая благодарность Mi3ch77 за составление релиза
[Профиль] [ЛС]
Показать сообщения:    
Ответить на тему

Текущее время: Сегодня 03:56

Часовой пояс: GMT + 3



Вы не можете начинать темы
Вы не можете отвечать на сообщения
Вы не можете редактировать свои сообщения
Вы не можете удалять свои сообщения
Вы не можете голосовать в опросах
Вы не можете прикреплять файлы к сообщениям
Вы не можете скачивать файлы