Madness. Pinkpop Festival 2009 [2017, 2 Tone/Pop/Ska/New wave, HDTVRip]

Ответить на тему
 
Автор Сообщение

DuMaSuK ®

Стаж: 5 лет 11 месяцев

Сообщений: 2

Пост 12-Янв-2017 07:20

[Цитировать]

Madness. Pinkpop Festival 2009

Жанр: 2 Tone/Pop/Ska/New wave
Продолжительность: 00:55:11
Год выпуска: 2017
Треклист: One step beyond
Embarrassment
The prince
My girl
Dust devil
The sun and the rain
Clerkenwell Polka
Forever young
NWS
House of fun
Baggy trousers
Our house
It must be love
Madness
Night boat to Cairo
Качество : HDTV
Формат: TS
Видео кодек: MPEG4
Аудио кодек: AC3
Видео: Mpeg-4 AVC, 1280x720, kbps, 50 fps
Аудио: AC3, 448 kbps, 48 kHz, stereo
Аудио2: MP2, 192 kbps, 48 kHz, stereo
Аудио3: MP2, 192 kbps, 48 kHz, stereo
DVDinfo
General
ID : 1 (0x1)
Complete name : D:\Downloads\Madness. Pinkpop Festival 2009.ts
Format : MPEG-TS
File size : 4.94 GiB
Duration : 55 min 11 s
Overall bit rate mode : Variable
Overall bit rate : 12.8 Mb/s
Video
ID : 5331 (0x14D3)
Menu ID : 10352 (0x2870)
Format : AVC
Format/Info : Advanced Video Codec
Format profile : High@L4
Format settings, CABAC : Yes
Format settings, ReFrames : 4 frames
Codec ID : 27
Duration : 55 min 10 s
Bit rate : 11.3 Mb/s
Width : 1 280 pixels
Height : 720 pixels
Display aspect ratio : 16:9
Frame rate : 50.000 FPS
Color space : YUV
Chroma subsampling : 4:2:0
Bit depth : 8 bits
Scan type : Progressive
Bits/(Pixel*Frame) : 0.246
Stream size : 4.37 GiB (88%)
Audio #1
ID : 5332 (0x14D4)
Menu ID : 10352 (0x2870)
Format : AC-3
Format/Info : Audio Coding 3
Mode extension : CM (complete main)
Format settings, Endianness : Big
Codec ID : 6
Duration : 55 min 10 s
Bit rate mode : Constant
Bit rate : 448 kb/s
Channel(s) : 2 channels
Channel positions : Front: L R
Sampling rate : 48.0 kHz
Frame rate : 31.250 FPS (1536 spf)
Compression mode : Lossy
Delay relative to video : -100 ms
Stream size : 177 MiB (3%)
Language : German
Audio #2
ID : 5333 (0x14D5)
Menu ID : 10352 (0x2870)
Format : MPEG Audio
Format version : Version 1
Format profile : Layer 2
Codec ID : 3
Duration : 55 min 10 s
Bit rate mode : Constant
Bit rate : 192 kb/s
Channel(s) : 2 channels
Sampling rate : 48.0 kHz
Compression mode : Lossy
Delay relative to video : -100 ms
Stream size : 75.8 MiB (1%)
Language : German
Audio #3
ID : 5334 (0x14D6)
Menu ID : 10352 (0x2870)
Format : MPEG Audio
Format version : Version 1
Format profile : Layer 2
Codec ID : 3
Duration : 55 min 10 s
Bit rate mode : Constant
Bit rate : 192 kb/s
Channel(s) : 2 channels
Sampling rate : 48.0 kHz
Compression mode : Lossy
Delay relative to video : -100 ms
Stream size : 75.8 MiB (1%)
Other
ID : 5335 (0x14D7)-100
Menu ID : 10352 (0x2870)
Format : Teletext
Language : German
Скриншоты меню
11111
Скриншоты
Особая благодарность Verue за составление релиза
[Профиль] [ЛС]
Показать сообщения:    
Ответить на тему

Текущее время: Сегодня 15:40

Часовой пояс: GMT + 3



Вы не можете начинать темы
Вы не можете отвечать на сообщения
Вы не можете редактировать свои сообщения
Вы не можете удалять свои сообщения
Вы не можете голосовать в опросах
Вы не можете прикреплять файлы к сообщениям
Вы не можете скачивать файлы