Фуука / Fuuka [TV] [01-02 из 12] [Без хардсаба] [RUS(ext), JAP, SUB] [2017, Драма, Музыка, Романтика, Школа, Сёнен, Этти, HDTVRip] [720p]

Ответить на тему
 
Автор Сообщение

tigruly55 ®

Стаж: 5 лет 1 месяц

Сообщений: 4

Пост 12-Янв-2017 07:20

[Цитировать]

-Фуука / Fuuka / 風夏- Год выпуска: 2017 г.
Страна: Япония
Жанр: Драма, Музыка, Романтика, Школа, Сёнен, Этти-Тип: TV-Продолжительность: 12 эп. по 25 мин.
Режиссер: Кусакава Кэйдзо
Студия: Silver Link-Перевод:
  • Русские субтитры от Angara & BadNewsZiggy & KronosHunter
  • Русские субтитры от Aexks & Luaine & Kagamin & Satsuki-Озвучка:
  • Двухголосая от (муж/жен) Kreol & Rin (AniFilm) -sample
  • Двухголосая от (жен/муж) Itashi & HectoR (Anilibria) -sample
  • Двухголосая от (муж/жен) Mamoru & RJ Pandora (SHIZA) -sample
  • Двухголосая от (жен/муж) Nazel & Kashi (Animedia) -sample-Описание:
    Новые знакомства всегда происходят внезапно! Главный герой, Ю Харуна, переезжает в новый город, где встречает довольно странную девушку, у которой даже нет сотового телефона. Девушка, Фуука, излучает ауру, подобную приятному летнему ветерку, из-за чего она и нравится окружающим.. Похоже, что Юу был втянут в дикую любовную историю.-Информационные ссылки: World Art || AniDB || MAL-Качество: HDTVRip | Рип: [Ohys-Raws]
    Тип релиза: Без хардсаба
    Формат видео: MP4
    Наличие линковки: Нет
    Видео: AVC, 1280x720, ~1517 kbps, 23.976 fps [8 bit]
    Аудио:
    1. Russian AC3, 48.0 KHz, 192 kbps, 2 ch (внешние) - [AniFilm];
    2. Russian AC3, 48.0 KHz, 192 kbps, 2 ch (внешние) - [Anilibria];
    3. Russian AC3, 48.0 KHz, 192 kbps, 2 ch (внешние) - [SHIZA];
    4. Russian AC3, 48.0 KHz, 192 kbps, 2 ch (внешние) - [Animedia];
    5. Japanese AAC, 48.0 KHz, ~211 kbps, 2 ch;
    Субтитры:
  • Russian: ASS, внешние;
    Подробные тех. данные
General
Format : MPEG-4
Format profile : Base Media
Codec ID : isom
File size : 299 MiB
Duration : 24mn 10s
Overall bit rate mode : Variable
Overall bit rate : 1 732 Kbps
Encoded date : UTC 2017-01-06 13:47:31
Tagged date : UTC 2017-01-06 13:47:31
Video #1
ID : 1
Format : AVC
Format/Info : Advanced Video Codec
Format profile : Main@L4.1
Format settings, CABAC : Yes
Format settings, ReFrames : 4 frames
Codec ID : avc1
Codec ID/Info : Advanced Video Coding
Duration : 24mn 9s
Bit rate : 1 517 Kbps
Maximum bit rate : 9 142 Kbps
Width : 1 280 pixels
Height : 720 pixels
Display aspect ratio : 16:9
Frame rate mode : Constant
Frame rate : 23.976 fps
Color space : YUV
Chroma subsampling : 4:2:0
Bit depth : 8 bits
Scan type : Progressive
Bits/(Pixel*Frame) : 0.069
Stream size : 262 MiB (88%)
Writing library : x264 core 148 r2744 b97ae06
Encoding settings : cabac=1 / ref=3 / deblock=1:0:0 / analyse=0x1:0x111 / me=hex / subme=7 / psy=1 / psy_rd=1.00:0.00 / mixed_ref=1 / me_range=16 / chroma_me=1 / trellis=1 / 8x8dct=0 / cqm=0 / deadzone=21,11 / fast_pskip=1 / chroma_qp_offset=-2 / threads=12 / lookahead_threads=2 / sliced_threads=0 / nr=0 / decimate=1 / interlaced=0 / bluray_compat=0 / constrained_intra=0 / bframes=3 / b_pyramid=2 / b_adapt=1 / b_bias=0 / direct=1 / weightb=1 / open_gop=0 / weightp=2 / keyint=240 / keyint_min=1 / scenecut=40 / intra_refresh=0 / rc_lookahead=40 / rc=crf / mbtree=1 / crf=20.0 / qcomp=0.60 / qpmin=0 / qpmax=69 / qpstep=4 / ip_ratio=1.40 / aq=1:1.50
Encoded date : UTC 2017-01-06 13:47:31
Tagged date : UTC 2017-01-06 13:47:33
Color primaries : BT.709
Transfer characteristics : BT.709
Matrix coefficients : BT.709
Audio #2
ID : 2
Format : AAC
Format/Info : Advanced Audio Codec
Format profile : LC
Codec ID : 40
Duration : 24mn 10s
Bit rate mode : Variable
Bit rate : 211 Kbps
Maximum bit rate : 256 Kbps
Channel(s) : 2 channels
Channel positions : Front: L R
Sampling rate : 48.0 KHz
Compression mode : Lossy
Stream size : 36.4 MiB (12%)
Language : Japanese
Encoded date : UTC 2017-01-06 13:29:58
Tagged date : UTC 2017-01-06 13:47:33
Список эпизодов-01. Фуука / Fuuka!
02. Взлеты! / Take Flight!-

Отличия
[url=viewtopic.php?t=5337641]http://emiz.biz/viewtopic.php?t=5337641[/url]
- наличие озвучки
[url=viewtopic.php?t=5338398]http://emiz.biz/viewtopic.php?t=5338398[/url]
- альт. озвучка
Скриншоты
Особая благодарность pcab1829 за составление релиза
[Профиль] [ЛС]
Показать сообщения:    
Ответить на тему

Текущее время: Сегодня 15:39

Часовой пояс: GMT + 3



Вы не можете начинать темы
Вы не можете отвечать на сообщения
Вы не можете редактировать свои сообщения
Вы не можете удалять свои сообщения
Вы не можете голосовать в опросах
Вы не можете прикреплять файлы к сообщениям
Вы не можете скачивать файлы