(mandolin, bluegrass) [CD] Danny Knicely & Jack Dunlap - Chop, Shred & Split - 2016, FLAC (tracks+.cue), lossless

Ответить на тему
 
Автор Сообщение

михаил 92 ®

Стаж: 2 года 8 месяцев

Сообщений: 1

Пост 11-Янв-2017 09:30

[Цитировать]

Danny Knicely & Jack Dunlap / Chop, Shred & Split
Жанр: mandolin, bluegrass
Носитель: CD
Год издания: 2016
Аудиокодек: FLAC (*.flac)
Тип рипа: tracks+.cue
Битрейт аудио: lossless
Продолжительность: 00:45:37
Источник (релизер): private collection
Наличие сканов в содержимом раздачи: нет
Треклист:
1. Woodpecker Polka
2. Shakin’ Down The Acorns
3. Funky Wolverine Breakdown
4. Big Red
5. Jack O’Lantern
6. Breakfast Feud
7. Lil’ Yadkin River Valley Breakdown
8. Wish U. Was Here
9. Six on Four
10. Tchavolo Swing
11. The Waltz of Tears
Лог создания рипа
Exact Audio Copy V1.0 beta 4 from 7. December 2014
EAC extraction logfile from 17. February 2016, 8:06
Danny Knicely & Jack Dunlap / Chop, Shred & Split
Used drive : HL-DT-STBDDVDRW UH12LS28 Adapter: 1 ID: 1
Read mode : Secure
Utilize accurate stream : Yes
Defeat audio cache : Yes
Make use of C2 pointers : No
Read offset correction : 667
Overread into Lead-In and Lead-Out : No
Fill up missing offset samples with silence : Yes
Delete leading and trailing silent blocks : No
Null samples used in CRC calculations : Yes
Used interface : Native Win32 interface for Win NT & 2000
Gap handling : Appended to previous track
Used output format : User Defined Encoder
Selected bitrate : 1024 kBit/s
Quality : High
Add ID3 tag : No
Command line compressor : K:\Program Files (x86)\Exact Audio Copy\Flac\flac.exe
Additional command line options : -8 -V -T "ARTIST=%artist%" -T "TITLE=%title%" -T "ALBUM=%albumtitle%" -T "DATE=%year%" -T "TRACKNUMBER=%tracknr%" -T "GENRE=%genre%" -T "PERFORMER=%albuminterpret%" -T "COMPOSER=%composer%" %haslyrics%--tag-from-file=LYRICS="%lyricsfile%"%haslyrics% -T "ALBUMARTIST=%albumartist%" -T "DISCNUMBER=%cdnumber%" -T "TOTALDISCS=%totalcds%" -T "TOTALTRACKS=%numtracks%" -T "COMMENT=%comment%" %source% -o %dest%
TOC of the extracted CD
Track | Start | Length | Start sector | End sector
---------------------------------------------------------
1 | 0:00.00 | 3:16.26 | 0 | 14725
2 | 3:16.26 | 3:40.32 | 14726 | 31257
3 | 6:56.58 | 4:49.08 | 31258 | 52940
4 | 11:45.66 | 3:16.08 | 52941 | 67648
5 | 15:01.74 | 3:24.36 | 67649 | 82984
6 | 18:26.35 | 3:20.33 | 82985 | 98017
7 | 21:46.68 | 3:37.33 | 98018 | 114325
8 | 25:24.26 | 8:24.22 | 114326 | 152147
9 | 33:48.48 | 3:37.39 | 152148 | 168461
10 | 37:26.12 | 3:19.53 | 168462 | 183439
11 | 40:45.65 | 4:52.57 | 183440 | 205396
Track 1
Filename E:\EAC2\Danny Knicely & Jack Dunlap - Chop, Shred & Split (2016) [FLAC]\01 Woodpecker Polka.wav
Pre-gap length 0:00:02.00
Peak level 98.6 %
Extraction speed 1.2 X
Track quality 100.0 %
Test CRC C76B45E2
Copy CRC C76B45E2
Track not present in AccurateRip database
Copy OK
Track 2
Filename E:\EAC2\Danny Knicely & Jack Dunlap - Chop, Shred & Split (2016) [FLAC]\02 Shakin' Down the Acorns.wav
Pre-gap length 0:00:02.80
Peak level 98.6 %
Extraction speed 1.1 X
Track quality 99.9 %
Test CRC C98534E4
Copy CRC C98534E4
Track not present in AccurateRip database
Copy OK
Track 3
Filename E:\EAC2\Danny Knicely & Jack Dunlap - Chop, Shred & Split (2016) [FLAC]\03 Funky Wolverine Breakdown.wav
Pre-gap length 0:00:00.16
Peak level 98.6 %
Extraction speed 1.5 X
Track quality 100.0 %
Test CRC 7713376E
Copy CRC 7713376E
Track not present in AccurateRip database
Copy OK
Track 4
Filename E:\EAC2\Danny Knicely & Jack Dunlap - Chop, Shred & Split (2016) [FLAC]\04 Big Red.wav
Pre-gap length 0:00:01.30
Peak level 98.6 %
Extraction speed 1.5 X
Track quality 100.0 %
Test CRC 7F3C7CF2
Copy CRC 7F3C7CF2
Track not present in AccurateRip database
Copy OK
Track 5
Filename E:\EAC2\Danny Knicely & Jack Dunlap - Chop, Shred & Split (2016) [FLAC]\05 Jack O' Lantern.wav
Pre-gap length 0:00:02.33
Peak level 98.6 %
Extraction speed 1.4 X
Track quality 99.9 %
Test CRC B42B3080
Copy CRC B42B3080
Track not present in AccurateRip database
Copy OK
Track 6
Filename E:\EAC2\Danny Knicely & Jack Dunlap - Chop, Shred & Split (2016) [FLAC]\06 Breakfast Feud.wav
Pre-gap length 0:00:00.65
Peak level 98.6 %
Extraction speed 1.7 X
Track quality 100.0 %
Test CRC 773B3B6E
Copy CRC 773B3B6E
Track not present in AccurateRip database
Copy OK
Track 7
Filename E:\EAC2\Danny Knicely & Jack Dunlap - Chop, Shred & Split (2016) [FLAC]\07 Lil' Yadkin River Breakdown.wav
Pre-gap length 0:00:00.08
Peak level 98.6 %
Extraction speed 1.6 X
Track quality 99.9 %
Test CRC 3795DE33
Copy CRC 3795DE33
Track not present in AccurateRip database
Copy OK
Track 8
Filename E:\EAC2\Danny Knicely & Jack Dunlap - Chop, Shred & Split (2016) [FLAC]\08 Wish U. Was Here.wav
Pre-gap length 0:00:00.54
Peak level 98.6 %
Extraction speed 2.0 X
Track quality 99.9 %
Test CRC 2202711A
Copy CRC 2202711A
Track not present in AccurateRip database
Copy OK
Track 9
Filename E:\EAC2\Danny Knicely & Jack Dunlap - Chop, Shred & Split (2016) [FLAC]\09 Six On Four.wav
Pre-gap length 0:00:00.68
Peak level 98.6 %
Extraction speed 2.0 X
Track quality 100.0 %
Test CRC 66699EB1
Copy CRC 66699EB1
Track not present in AccurateRip database
Copy OK
Track 10
Filename E:\EAC2\Danny Knicely & Jack Dunlap - Chop, Shred & Split (2016) [FLAC]\10 Tchavolo Swing.wav
Pre-gap length 0:00:02.54
Peak level 98.6 %
Extraction speed 2.1 X
Track quality 100.0 %
Test CRC CFB2E763
Copy CRC CFB2E763
Track not present in AccurateRip database
Copy OK
Track 11
Filename E:\EAC2\Danny Knicely & Jack Dunlap - Chop, Shred & Split (2016) [FLAC]\11 The Waltz of Tears.wav
Pre-gap length 0:00:01.18
Peak level 98.0 %
Extraction speed 2.3 X
Track quality 100.0 %
Test CRC 11FAF914
Copy CRC 11FAF914
Track not present in AccurateRip database
Copy OK
None of the tracks are present in the AccurateRip database
No errors occurred
End of status report
---- CUETools DB Plugin V2.1.4
[CTDB TOCID: sKDIC8CSmG3EilY0mkpIcRukdUc-] disk not present in database
Submit result: sKDIC8CSmG3EilY0mkpIcRukdUc- has been uploaded
==== Log checksum 7040E9CEFC7D47C3EB2FA5F1F1DB1E59BF86C0177DA01A51DDB33947FAD24C10 ====
Содержание индексной карты (.CUE)
REM DATE 2016
REM DISCID 850AB20B
REM COMMENT "ExactAudioCopy v1.0b4"
PERFORMER "Danny Knicely & Jack Dunlap"
TITLE "Chop, Shred & Split"
FILE "01 Woodpecker Polka.wav" WAVE
TRACK 01 AUDIO
TITLE "Woodpecker Polka"
PERFORMER "Danny Knicely & Jack Dunlap"
ISRC QM9AA1549068
FLAGS DCP
INDEX 01 00:00:00
TRACK 02 AUDIO
TITLE "Shakin' Down the Acorns"
PERFORMER "Danny Knicely & Jack Dunlap"
ISRC QM9AA1549069
FLAGS DCP
INDEX 00 03:13:41
FILE "02 Shakin' Down the Acorns.wav" WAVE
INDEX 01 00:00:00
TRACK 03 AUDIO
TITLE "Funky Wolverine Breakdown"
PERFORMER "Danny Knicely & Jack Dunlap"
ISRC QM9AA1549070
FLAGS DCP
INDEX 00 03:40:20
FILE "03 Funky Wolverine Breakdown.wav" WAVE
INDEX 01 00:00:00
TRACK 04 AUDIO
TITLE "Big Red"
PERFORMER "Danny Knicely & Jack Dunlap"
ISRC QM9AA1549071
FLAGS DCP
INDEX 00 04:47:60
FILE "04 Big Red.wav" WAVE
INDEX 01 00:00:00
TRACK 05 AUDIO
TITLE "Jack O' Lantern"
PERFORMER "Danny Knicely & Jack Dunlap"
ISRC QM9AA1549072
FLAGS DCP
INDEX 00 03:13:58
FILE "05 Jack O' Lantern.wav" WAVE
INDEX 01 00:00:00
TRACK 06 AUDIO
TITLE "Breakfast Feud"
PERFORMER "Danny Knicely & Jack Dunlap"
ISRC QM9AA1549073
FLAGS DCP
INDEX 00 03:23:62
FILE "06 Breakfast Feud.wav" WAVE
INDEX 01 00:00:00
TRACK 07 AUDIO
TITLE "Lil' Yadkin River Breakdown"
PERFORMER "Danny Knicely & Jack Dunlap"
ISRC QM9AA1549074
FLAGS DCP
INDEX 00 03:20:27
FILE "07 Lil' Yadkin River Breakdown.wav" WAVE
INDEX 01 00:00:00
TRACK 08 AUDIO
TITLE "Wish U. Was Here"
PERFORMER "Danny Knicely & Jack Dunlap"
ISRC QM9AA1549075
FLAGS DCP
INDEX 00 03:36:67
FILE "08 Wish U. Was Here.wav" WAVE
INDEX 01 00:00:00
TRACK 09 AUDIO
TITLE "Six On Four"
PERFORMER "Danny Knicely & Jack Dunlap"
ISRC QM9AA1549076
FLAGS DCP
INDEX 00 08:23:46
FILE "09 Six On Four.wav" WAVE
INDEX 01 00:00:00
TRACK 10 AUDIO
TITLE "Tchavolo Swing"
PERFORMER "Danny Knicely & Jack Dunlap"
ISRC QM9AA1549077
FLAGS DCP
INDEX 00 03:34:73
FILE "10 Tchavolo Swing.wav" WAVE
INDEX 01 00:00:00
TRACK 11 AUDIO
TITLE "The Waltz of Tears"
PERFORMER "Danny Knicely & Jack Dunlap"
ISRC QM9AA1549078
FLAGS DCP
INDEX 00 03:18:39
FILE "11 The Waltz of Tears.wav" WAVE
INDEX 01 00:00:00

Особая благодарность mandof5 за составление релиза
[Профиль] [ЛС]
Показать сообщения:    
Ответить на тему

Текущее время: Сегодня 20:44

Часовой пояс: GMT + 3



Вы не можете начинать темы
Вы не можете отвечать на сообщения
Вы не можете редактировать свои сообщения
Вы не можете удалять свои сообщения
Вы не можете голосовать в опросах
Вы не можете прикреплять файлы к сообщениям
Вы не можете скачивать файлы