NHL 16/17, RS. Boston Bruins - St. Louis Blues [10.01.2017, Хоккей, HDTVRip/720p/50fps, MKV/H.264, RU/EN, Eurosport]

Ответить на тему
 
Автор Сообщение

Оксана333 ®

Стаж: 5 лет 11 месяцев

Сообщений: 2

Пост 11-Янв-2017 09:30

[Цитировать]

NHL 16/17
Boston Bruins - St. Louis Blues
Год выпуска: 10.01.2017
Вид спорта: Хоккей
Комментарий: Профессиональный
Язык комментариев: Русский (Дехтярев) / Английский (NBCSN)-Описание: NHL 16/17, RS. Boston Bruins - St. Louis Blues.-Автор рипа: Злобный Санчез
Качество: HDTVRip
Формат: MKV
Видео кодек: H.264
Аудио кодек: AC3
Видео: MPEG4 Video (H264) 1280x720 (16:9) 50fps 4000kbps
Аудио: Dolby AC3 48000Hz stereo 192kbps
Скриншоты Продолжительность
01:55:49
Счет
Счет
Boston Bruins 5 - 3 St. Louis Blues
MediaInfo
General
Unique ID : 29272855629047275545467975346326289695 (0x1605BF363D2BAB6E0D544330F22F3D1F)
Complete name : W:\раздачи\Хоккей. НХЛ. Регулярный сезон. 2017.01.10. Сент-Луис - Бостон. Рутрекер.mkv
Format : Matroska
Format version : Version 2
File size : 3.60 GiB
Duration : 1 h 55 min
Overall bit rate : 4 446 kb/s
Writing application : Lavf54.63.104
Writing library : Lavf54.63.104 / Lavf54.63.104
Video
ID : 1
Format : AVC
Format/Info : Advanced Video Codec
Format profile : High@L4.1
Format settings, CABAC : Yes
Format settings, ReFrames : 4 frames
Codec ID : V_MPEG4/ISO/AVC
Duration : 1 h 55 min
Bit rate : 3 974 kb/s
Width : 1 280 pixels
Height : 720 pixels
Display aspect ratio : 16:9
Frame rate mode : Constant
Frame rate : 50.000 FPS
Color space : YUV
Chroma subsampling : 4:2:0
Bit depth : 8 bits
Scan type : Progressive
Bits/(Pixel*Frame) : 0.086
Stream size : 3.21 GiB (89%)
Default : No
Forced : No
Color range : Limited
Color primaries : BT.709
Transfer characteristics : BT.709
Matrix coefficients : BT.709
Audio #1
ID : 2
Format : AC-3
Format/Info : Audio Coding 3
Mode extension : CM (complete main)
Format settings, Endianness : Big
Codec ID : A_AC3
Duration : 1 h 55 min
Bit rate mode : Constant
Bit rate : 192 kb/s
Channel(s) : 2 channels
Channel positions : Front: L R
Sampling rate : 48.0 kHz
Frame rate : 31.250 FPS (1536 spf)
Bit depth : 16 bits
Compression mode : Lossy
Stream size : 159 MiB (4%)
Language : Russian
Default : Yes
Forced : No
Audio #2
ID : 3
Format : AC-3
Format/Info : Audio Coding 3
Mode extension : CM (complete main)
Format settings, Endianness : Big
Codec ID : A_AC3
Duration : 1 h 55 min
Bit rate mode : Constant
Bit rate : 192 kb/s
Channel(s) : 2 channels
Channel positions : Front: L R
Sampling rate : 48.0 kHz
Frame rate : 31.250 FPS (1536 spf)
Bit depth : 16 bits
Compression mode : Lossy
Stream size : 159 MiB (4%)
Language : English
Default : No
Forced : No
-Календарь релизов НХЛ 2016-2017А скоро? А когда? Да сколько же можно ждать !!!!??? Ответы на наиболее популярные вопросы про НХЛNHL 16/17. Обзоры матчей / NHL On The Fly[url=viewtopic.php?t=5298043]⇨ NHL 16/17, RS: Extended Highlights / Обзоры матчей ⇦[/url]-[url=viewtopic.php?t=5279692]Кубок войны и мира / Матч! ТВ HD [2016, Хоккей, IPTV HD/1080p/25fps, H.264/MKV, RU][/url]
[url=viewtopic.php?t=5299678]Кубок Войны и Мира. Послесловие / Матч! ТВ [2016, Хоккей, IPTV/576p/50fps, H.264/MKV, RU][/url]
[url=viewtopic.php?t=5299692]Неизведанная Европа / Хоккей. Кубок мира 2016. Сборная Европы / Матч! ТВ [2016, Хоккей, IPTV/576p/50fps, H.264/MKV, RU][/url]
-NHL Media Guides / Путеводители НХЛ | [url=viewtopic.php?t=5185574]The Hockey News / Хоккейные новости[/url]
Особая благодарность Злобный Санчез за составление релиза
[Профиль] [ЛС]
Показать сообщения:    
Ответить на тему

Текущее время: Сегодня 04:13

Часовой пояс: GMT + 3



Вы не можете начинать темы
Вы не можете отвечать на сообщения
Вы не можете редактировать свои сообщения
Вы не можете удалять свои сообщения
Вы не можете голосовать в опросах
Вы не можете прикреплять файлы к сообщениям
Вы не можете скачивать файлы