NHL 16/17. NHL On The Fly. Обзор матчей за 9 января [09.01.2017, Хоккей, HDTVRip/720p/50fps, MKV/H.264, RU/EN, Eurosport]

Ответить на тему
 
Автор Сообщение

KNV2010 ®

Стаж: 2 года

Сообщений: 1

Пост 11-Янв-2017 00:50

[Цитировать]

NHL 16/17
NHL On The Fly
Год выпуска: 09.01.2017
Вид спорта: Хоккей
Комментарий: Профессиональный
Язык комментариев: Русский / Английский-Описание: NHL 16/17. NHL On The Fly. Обзор матчей за 9 января 2017 года.-Автор рипа: Злобный Санчез
Качество: HDTVRip
Формат: MKV
Видео кодек: H.264
Аудио кодек: AC3
Видео: MPEG4 Video (H264) 1280x720 (16:9) 50fps 4000kbps
Аудио: Dolby AC3 48000Hz stereo 192kbps
Скриншоты (не обновляются) Продолжительность
00:17:15
MediaInfo
General
Unique ID : 19808481335675638644459519133937346603 (0xEE6F98847BD63FD43008A6EFF24A82B)
Complete name : W:\раздачи\NHL On The Fly. Обзор матчей за 09.01.2017. Rutracker.org.mkv
Format : Matroska
Format version : Version 4 / Version 2
File size : 551 MiB
Duration : 17 min 15 s
Overall bit rate : 4 466 kb/s
Writing application : XviD4PSP 7.0.343 DAILY
Writing library : Lavf57.41.100 / Lavf57.41.100
ENCODING_INFO : MPEGTS > MKV / H264 > X264 ABR 4000kbps Fast / MP2 > AC3 CBR 192kbps / MP2 > AC3 CBR 192kbps
Video
ID : 1
Format : AVC
Format/Info : Advanced Video Codec
Format profile : High@L4.1
Format settings, CABAC : Yes
Format settings, ReFrames : 4 frames
Codec ID : V_MPEG4/ISO/AVC
Bit rate : 4 000 kb/s
Width : 1 280 pixels
Height : 720 pixels
Display aspect ratio : 16:9
Frame rate mode : Variable
Original frame rate : 50.000 FPS
Color space : YUV
Chroma subsampling : 4:2:0
Bit depth : 8 bits
Scan type : Progressive
Bits/(Pixel*Frame) : 0.087
Writing library : x264 core 148 r2744M b97ae06
Encoding settings : cabac=1 / ref=2 / deblock=1:-2:-2 / analyse=0x3:0x113 / me=hex / subme=6 / psy=1 / psy_rd=1.00:0.00 / mixed_ref=1 / me_range=16 / chroma_me=1 / trellis=1 / 8x8dct=1 / cqm=0 / deadzone=21,11 / fast_pskip=1 / chroma_qp_offset=-2 / threads=5 / lookahead_threads=1 / sliced_threads=0 / nr=0 / decimate=1 / interlaced=0 / bluray_compat=0 / constrained_intra=0 / bframes=3 / b_pyramid=2 / b_adapt=1 / b_bias=0 / direct=1 / weightb=1 / open_gop=0 / weightp=1 / keyint=500 / keyint_min=50 / scenecut=40 / intra_refresh=0 / rc_lookahead=30 / rc=abr / mbtree=1 / bitrate=4000 / ratetol=1.0 / qcomp=0.60 / qpmin=0 / qpmax=69 / qpstep=4 / ip_ratio=1.40 / aq=1:1.00
Default : Yes
Forced : No
Color range : Limited
Color primaries : BT.709
Transfer characteristics : BT.709
Matrix coefficients : BT.709
DURATION : 00:17:15.385000000
Audio #1
ID : 2
Format : AC-3
Format/Info : Audio Coding 3
Mode extension : CM (complete main)
Format settings, Endianness : Big
Codec ID : A_AC3
Duration : 17 min 15 s
Bit rate mode : Constant
Bit rate : 192 kb/s
Channel(s) : 2 channels
Channel positions : Front: L R
Sampling rate : 48.0 kHz
Frame rate : 31.250 FPS (1536 spf)
Bit depth : 16 bits
Compression mode : Lossy
Stream size : 23.7 MiB (4%)
Language : Russian
Default : Yes
Forced : No
DURATION : 00:17:15.456000000
Audio #2
ID : 3
Format : AC-3
Format/Info : Audio Coding 3
Mode extension : CM (complete main)
Format settings, Endianness : Big
Codec ID : A_AC3
Duration : 17 min 15 s
Bit rate mode : Constant
Bit rate : 192 kb/s
Channel(s) : 2 channels
Channel positions : Front: L R
Sampling rate : 48.0 kHz
Frame rate : 31.250 FPS (1536 spf)
Bit depth : 16 bits
Compression mode : Lossy
Stream size : 23.7 MiB (4%)
Language : English
Default : No
Forced : No
DURATION : 00:17:15.456000000
-Календарь релизов НХЛ 2016-2017А скоро? А когда? Да сколько же можно ждать !!!!??? Ответы на наиболее популярные вопросы про НХЛNHL 16/17. Обзоры матчей / NHL On The Fly[url=viewtopic.php?t=5298043]⇨ NHL 16/17, RS: Extended Highlights / Обзоры матчей ⇦[/url]-[url=viewtopic.php?t=5279692]Кубок войны и мира / Матч! ТВ HD [2016, Хоккей, IPTV HD/1080p/25fps, H.264/MKV, RU][/url]
[url=viewtopic.php?t=5299678]Кубок Войны и Мира. Послесловие / Матч! ТВ [2016, Хоккей, IPTV/576p/50fps, H.264/MKV, RU][/url]
[url=viewtopic.php?t=5299692]Неизведанная Европа / Хоккей. Кубок мира 2016. Сборная Европы / Матч! ТВ [2016, Хоккей, IPTV/576p/50fps, H.264/MKV, RU][/url]
-NHL Media Guides / Путеводители НХЛ | [url=viewtopic.php?t=5185574]The Hockey News / Хоккейные новости[/url]
Особая благодарность Злобный Санчез за составление релиза
[Профиль] [ЛС]
Показать сообщения:    
Ответить на тему

Текущее время: Сегодня 11:29

Часовой пояс: GMT + 3



Вы не можете начинать темы
Вы не можете отвечать на сообщения
Вы не можете редактировать свои сообщения
Вы не можете удалять свои сообщения
Вы не можете голосовать в опросах
Вы не можете прикреплять файлы к сообщениям
Вы не можете скачивать файлы