(Bluegrass, Country) [CD] Marty Stuart - Busy Bee Cafe - 1982, FLAC (tracks+.cue), lossless

Ответить на тему
 
Автор Сообщение

anet53 ®

Стаж: 4 года 4 месяца

Сообщений: 1

Пост 10-Янв-2017 11:00

[Цитировать]

Marty Stuart / Busy Bee Cafe
[img=right]https://images-eu.ssl-images-amazon.com/images/I/61..._QL70_.jpg[/img]
Жанр: Bluegrass, Country
Носитель: CD
Год издания: 1982
Издатель (лейбл): Sugar Hill Records
Номер по каталогу: SH-CD-3726
Аудиокодек: FLAC (*.flac)
Тип рипа: tracks+.cue
Битрейт аудио: lossless
Продолжительность: 00:32:47
Источник (релизер): private collection
Наличие сканов в содержимом раздачи: нет
Треклист:
1. One More Ride
2. Blue Railroad Train
3. I Don't Love Nobody
4. Watson's Blues
5. Busy Bee Cafe
6. Down The Road
7. Hey Porter
8. Boogie For Clarence
9. Get In Line Brother
10. Soldiers Joy
11. Long Train Gone
Лог создания рипа
Exact Audio Copy V1.0 beta 3 from 29. August 2011
EAC extraction logfile from 15. July 2012, 15:46
Marty Stuart / Busy Bee Cafe
Used drive : HP DVD Writer 1040r Adapter: 0 ID: 1
Read mode : Secure
Utilize accurate stream : Yes
Defeat audio cache : Yes
Make use of C2 pointers : No
Read offset correction : 6
Overread into Lead-In and Lead-Out : No
Fill up missing offset samples with silence : Yes
Delete leading and trailing silent blocks : No
Null samples used in CRC calculations : Yes
Used interface : Native Win32 interface for Win NT & 2000
Gap handling : Appended to previous track
Used output format : User Defined Encoder
Selected bitrate : 1024 kBit/s
Quality : High
Add ID3 tag : No
Command line compressor : C:\Program Files\Exact Audio Copy\Flac\flac.exe
Additional command line options : -8 -V -T "ARTIST=%artist%" -T "TITLE=%title%" -T "ALBUM=%albumtitle%" -T "DATE=%year%" -T "TRACKNUMBER=%tracknr%" -T "GENRE=%genre%" -T "PERFORMER=%albuminterpret%" -T "COMPOSER=%composer%" %haslyrics%--tag-from-file=LYRICS="%lyricsfile%"%haslyrics% -T "ALBUMARTIST=%albumartist%" -T "DISCNUMBER=%cdnumber%" -T "TOTALDISCS=%totalcds%" -T "TOTALTRACKS=%numtracks%" -T "COMMENT=%comment%" %source% -o %dest%
TOC of the extracted CD
Track | Start | Length | Start sector | End sector
---------------------------------------------------------
1 | 0:00.50 | 3:27.50 | 50 | 15624
2 | 3:28.25 | 2:33.47 | 15625 | 27146
3 | 6:01.72 | 2:31.08 | 27147 | 38479
4 | 8:33.05 | 3:32.65 | 38480 | 54444
5 | 12:05.70 | 4:01.27 | 54445 | 72546
6 | 16:07.22 | 1:40.63 | 72547 | 80109
7 | 17:48.10 | 2:59.10 | 80110 | 93544
8 | 20:47.20 | 3:12.70 | 93545 | 108014
9 | 24:00.15 | 2:27.15 | 108015 | 119054
10 | 26:27.30 | 2:10.20 | 119055 | 128824
11 | 28:37.50 | 4:10.17 | 128825 | 147591
Track 1
Filename C:\Program Files\Exact Audio Copy\Marty Stuart - Busy Bee Cafe (1982) [FLAC] {Sugar Hill Records - SH-CD-3726}\01 One More Ride.wav
Pre-gap length 0:00:02.66
Peak level 63.5 %
Extraction speed 1.7 X
Track quality 100.0 %
Test CRC D49342C7
Copy CRC D49342C7
Cannot be verified as accurate (confidence 2) [D5F1A694], AccurateRip returned [28E8A633] (AR v2)
Copy OK
Track 2
Filename C:\Program Files\Exact Audio Copy\Marty Stuart - Busy Bee Cafe (1982) [FLAC] {Sugar Hill Records - SH-CD-3726}\02 Blue Railroad Train.wav
Pre-gap length 0:00:01.30
Peak level 56.1 %
Extraction speed 1.8 X
Track quality 100.0 %
Test CRC C20C4063
Copy CRC C20C4063
Cannot be verified as accurate (confidence 2) [777EA8CC], AccurateRip returned [0BCB83E2] (AR v2)
Copy OK
Track 3
Filename C:\Program Files\Exact Audio Copy\Marty Stuart - Busy Bee Cafe (1982) [FLAC] {Sugar Hill Records - SH-CD-3726}\03 I Don't Love Nobody.wav
Pre-gap length 0:00:00.93
Peak level 71.1 %
Extraction speed 1.9 X
Track quality 100.0 %
Test CRC E7FA0E23
Copy CRC E7FA0E23
Cannot be verified as accurate (confidence 2) [826AB8DB], AccurateRip returned [58F7471F] (AR v2)
Copy OK
Track 4
Filename C:\Program Files\Exact Audio Copy\Marty Stuart - Busy Bee Cafe (1982) [FLAC] {Sugar Hill Records - SH-CD-3726}\04 Watson's Blues.wav
Pre-gap length 0:00:01.66
Peak level 61.5 %
Extraction speed 2.2 X
Track quality 100.0 %
Test CRC 27124FBD
Copy CRC 27124FBD
Cannot be verified as accurate (confidence 2) [FA8E862D], AccurateRip returned [5C510792] (AR v2)
Copy OK
Track 5
Filename C:\Program Files\Exact Audio Copy\Marty Stuart - Busy Bee Cafe (1982) [FLAC] {Sugar Hill Records - SH-CD-3726}\05 Busy Bee Cafe.wav
Pre-gap length 0:00:01.40
Peak level 59.5 %
Extraction speed 2.0 X
Track quality 99.9 %
Test CRC 0DA01783
Copy CRC 0DA01783
Cannot be verified as accurate (confidence 2) [A4AF5E56], AccurateRip returned [8C93DB02] (AR v2)
Copy OK
Track 6
Filename C:\Program Files\Exact Audio Copy\Marty Stuart - Busy Bee Cafe (1982) [FLAC] {Sugar Hill Records - SH-CD-3726}\06 Down the Road.wav
Pre-gap length 0:00:01.20
Peak level 76.5 %
Extraction speed 2.1 X
Track quality 100.0 %
Test CRC BA63DDAF
Copy CRC BA63DDAF
Cannot be verified as accurate (confidence 2) [15BFA1D1], AccurateRip returned [EE78A60E] (AR v2)
Copy OK
Track 7
Filename C:\Program Files\Exact Audio Copy\Marty Stuart - Busy Bee Cafe (1982) [FLAC] {Sugar Hill Records - SH-CD-3726}\07 Hey Porter.wav
Pre-gap length 0:00:01.60
Peak level 63.3 %
Extraction speed 2.5 X
Track quality 100.0 %
Test CRC D393C486
Copy CRC D393C486
Cannot be verified as accurate (confidence 2) [1B46FDD7], AccurateRip returned [B5557616] (AR v2)
Copy OK
Track 8
Filename C:\Program Files\Exact Audio Copy\Marty Stuart - Busy Bee Cafe (1982) [FLAC] {Sugar Hill Records - SH-CD-3726}\08 Boogie for Clarence.wav
Pre-gap length 0:00:01.73
Peak level 65.4 %
Extraction speed 2.6 X
Track quality 100.0 %
Test CRC BFA4183E
Copy CRC BFA4183E
Cannot be verified as accurate (confidence 2) [77D3CB69], AccurateRip returned [908D441B] (AR v2)
Copy OK
Track 9
Filename C:\Program Files\Exact Audio Copy\Marty Stuart - Busy Bee Cafe (1982) [FLAC] {Sugar Hill Records - SH-CD-3726}\09 Get in Line Brother.wav
Pre-gap length 0:00:01.84
Peak level 77.1 %
Extraction speed 2.6 X
Track quality 100.0 %
Test CRC C90E9F72
Copy CRC C90E9F72
Cannot be verified as accurate (confidence 2) [FA96BB8D], AccurateRip returned [D418941D] (AR v2)
Copy OK
Track 10
Filename C:\Program Files\Exact Audio Copy\Marty Stuart - Busy Bee Cafe (1982) [FLAC] {Sugar Hill Records - SH-CD-3726}\10 Soldier's Joy.wav
Pre-gap length 0:00:00.66
Peak level 71.8 %
Extraction speed 2.6 X
Track quality 100.0 %
Test CRC 9093DC91
Copy CRC 9093DC91
Cannot be verified as accurate (confidence 2) [B4CA4D6C], AccurateRip returned [F7691AEA] (AR v2)
Copy OK
Track 11
Filename C:\Program Files\Exact Audio Copy\Marty Stuart - Busy Bee Cafe (1982) [FLAC] {Sugar Hill Records - SH-CD-3726}\11 Long Train Gone.wav
Pre-gap length 0:00:01.10
Peak level 70.7 %
Extraction speed 3.0 X
Track quality 100.0 %
Test CRC 2E7E6AC1
Copy CRC 2E7E6AC1
Cannot be verified as accurate (confidence 2) [038B55F2], AccurateRip returned [C98C96D8] (AR v2)
Copy OK
No tracks could be verified as accurate
You may have a different pressing from the one(s) in the database
No errors occurred
End of status report
==== Log checksum EDDB569C7917FD2D00B10461AA98E1A77292572C426D2202977AF98AC0CD9B07 ====
Содержание индексной карты (.CUE)
REM GENRE Folk
REM DISCID 9007AF0B
REM COMMENT "ExactAudioCopy v1.0b3"
PERFORMER "Marty Stuart"
TITLE "Busy Bee Cafe"
FILE "01 One More Ride.wav" WAVE
TRACK 01 AUDIO
TITLE "One More Ride"
PERFORMER "Marty Stuart"
PREGAP 00:00:50
INDEX 01 00:00:00
TRACK 02 AUDIO
TITLE "Blue Railroad Train"
PERFORMER "Marty Stuart"
INDEX 00 03:26:27
FILE "02 Blue Railroad Train.wav" WAVE
INDEX 01 00:00:00
TRACK 03 AUDIO
TITLE "I Don't Love Nobody"
PERFORMER "Marty Stuart"
INDEX 00 02:32:52
FILE "03 I Don't Love Nobody.wav" WAVE
INDEX 01 00:00:00
TRACK 04 AUDIO
TITLE "Watson's Blues"
PERFORMER "Marty Stuart"
INDEX 00 02:29:33
FILE "04 Watson's Blues.wav" WAVE
INDEX 01 00:00:00
TRACK 05 AUDIO
TITLE "Busy Bee Cafe"
PERFORMER "Marty Stuart"
INDEX 00 03:31:35
FILE "05 Busy Bee Cafe.wav" WAVE
INDEX 01 00:00:00
TRACK 06 AUDIO
TITLE "Down the Road"
PERFORMER "Marty Stuart"
INDEX 00 04:00:12
FILE "06 Down the Road.wav" WAVE
INDEX 01 00:00:00
TRACK 07 AUDIO
TITLE "Hey Porter"
PERFORMER "Marty Stuart"
INDEX 00 01:39:18
FILE "07 Hey Porter.wav" WAVE
INDEX 01 00:00:00
TRACK 08 AUDIO
TITLE "Boogie for Clarence"
PERFORMER "Marty Stuart"
INDEX 00 02:57:30
FILE "08 Boogie for Clarence.wav" WAVE
INDEX 01 00:00:00
TRACK 09 AUDIO
TITLE "Get in Line Brother"
PERFORMER "Marty Stuart"
INDEX 00 03:11:07
FILE "09 Get in Line Brother.wav" WAVE
INDEX 01 00:00:00
TRACK 10 AUDIO
TITLE "Soldier's Joy"
PERFORMER "Marty Stuart"
INDEX 00 02:26:40
FILE "10 Soldier's Joy.wav" WAVE
INDEX 01 00:00:00
TRACK 11 AUDIO
TITLE "Long Train Gone"
PERFORMER "Marty Stuart"
INDEX 00 02:09:12
FILE "11 Long Train Gone.wav" WAVE
INDEX 01 00:00:00

Особая благодарность mandof5 за составление релиза
[Профиль] [ЛС]
Показать сообщения:    
Ответить на тему

Текущее время: Сегодня 18:14

Часовой пояс: GMT + 3



Вы не можете начинать темы
Вы не можете отвечать на сообщения
Вы не можете редактировать свои сообщения
Вы не можете удалять свои сообщения
Вы не можете голосовать в опросах
Вы не можете прикреплять файлы к сообщениям
Вы не можете скачивать файлы