(Classical) Beethoven: Piano Concerto № 5 • Mozart: Piano Concertos № 9, 20; Piano Sonatas № 5, 11, 15 (Perlea, Swarowsky; Novaes) — 1993, APE (image+.cue) lossless

Ответить на тему
 
Автор Сообщение

Anton1404 ®

Стаж: 3 года 4 месяца

Сообщений: 1

Пост 10-Янв-2017 02:25

[Цитировать]

Piano Concerto № 5 • Piano Concertos № 9, 20, Piano Sonatas № 5, 11, 15-
Жанр: Classical
Страна: США
Год издания дисков: 1993
Годы записи фонограмм: early 1950s
Издатель (лейбл): The Vox Music Group
Номер по каталогу: CDX2 5512
Композиторы: Ludwig van Beethoven / Wolfgang Amadeus Mozart
Исполнительский коллектив: Bamberg Symphony Orchestra under Jonel Perlea (CD1, 01-03); Vienna Symphony Orchestra under Hans Swarowsky (CD2, 01-06); Guiomar Novaes, piano
Аудио кодек: ape
Тип рипа: image+.cue
Битрейт аудио: lossless
Продолжительность: 02h27'48"
Источник: intoclassics
Наличие сканов в содержимом раздачи: да-

Треклист
CD 1 [01h16'35"]
Ludwig van Beethoven
(01-03) Piano Concerto № 5 Es-Dur Op 75 «Emperor» [40'36"]
Wolfgang Amadeus Mozart
(04-06) Piano Sonata № 5 G-Dur K 283 [19'34"]
(07-12) Piano Sonata № 11 A-Dur K 331 [16'25"]-

CUE
REM GENRE "Classical"
REM DATE "1993"
PERFORMER "Beethoven, Mozart"
TITLE "Piano Works CD1"
FILE "CD1.ape" WAVE
TRACK 01 AUDIO
PERFORMER "Beethoven"
TITLE "Piano Concerto № 5 Es-Dur Op 75 «Emperor» – I. Allegro"
INDEX 01 00:00:00
TRACK 02 AUDIO
PERFORMER "Beethoven"
TITLE "Piano Concerto № 5 Es-Dur Op 75 «Emperor» – II. Adagio un poco mosso"
INDEX 01 21:00:63
TRACK 03 AUDIO
PERFORMER "Beethoven"
TITLE "Piano Concerto № 5 Es-Dur Op 75 «Emperor» – III. Rondo Allegro"
INDEX 01 29:44:70
TRACK 04 AUDIO
PERFORMER "Mozart"
TITLE "Piano Sonata № 5 G-Dur K 283 – I. Allegro"
INDEX 01 40:36:00
TRACK 05 AUDIO
PERFORMER "Mozart"
TITLE "Piano Sonata № 5 G-Dur K 283 – II. Andante"
INDEX 01 46:02:73
TRACK 06 AUDIO
PERFORMER "Mozart"
TITLE "Piano Sonata № 5 G-Dur K 283 – III. Presto"
INDEX 01 54:02:25
TRACK 07 AUDIO
PERFORMER "Mozart"
TITLE "Piano Sonata № 11 A-Dur K 331 – I. Andante Grazioso"
INDEX 01 60:10:00
TRACK 08 AUDIO
PERFORMER "Mozart"
TITLE "Piano Sonata № 11 A-Dur K 331 – II. Variations"
INDEX 01 61:50:25
TRACK 09 AUDIO
PERFORMER "Mozart"
TITLE "Piano Sonata № 11 A-Dur K 331 – III. Minuetto"
INDEX 01 63:17:43
TRACK 10 AUDIO
PERFORMER "Mozart"
TITLE "Piano Sonata № 11 A-Dur K 331 – IV. Trio"
INDEX 01 66:54:63
TRACK 11 AUDIO
PERFORMER "Mozart"
TITLE "Piano Sonata № 11 A-Dur K 331 – V. Alla Turca"
INDEX 01 68:16:00
TRACK 12 AUDIO
PERFORMER "Mozart"
TITLE "Piano Sonata № 11 A-Dur K 331 – VI. Allegretto"
INDEX 01 73:30:73
-fooCDtect
fooCDtect - foobar2000 + auCDtect, baralgin.
auCDtect: CD records authenticity detector, version 0.8.2
Copyright (c) 2004 Oleg Berngardt. All rights reserved.
Copyright (c) 2004 Alexander Djourik. All rights reserved.
mode: 0
===========================================
Track: 01 Piano Concerto № 5 Es-Dur Op 75 «Emperor» – I. Allegro
Processing file: [01 Piano Concerto № 5 Es-Dur Op 75 «Emperor» – I. Allegro.aucdtect]
Detected average hi-boundary frequency: 2.013496e+004 Hz
Detected average lo-boundary frequency: 1.275360e+004 Hz
Detected average hi-cut frequency: 2.158021e+004 Hz
Detected average lo-cut frequency: 8.501375e+003 Hz
Maximum probablis boundary frequency: 2.189100e+004 Hz
Coefficient of nonlinearity of a phase: 5.978800e-001
First order smothness: 3.837312e-001
Second order smothness: 7.002653e-001
------------------------------------------------------------
This track looks like CDDA with probability 100%
===========================================
Track: 02 Piano Concerto № 5 Es-Dur Op 75 «Emperor» – II. Adagio un poco mosso
Processing file: [02 Piano Concerto № 5 Es-Dur Op 75 «Emperor» – II. Adagio un poco mosso.aucdtect]
Detected average hi-boundary frequency: 1.988897e+004 Hz
Detected average lo-boundary frequency: 1.114608e+004 Hz
Detected average hi-cut frequency: 2.171960e+004 Hz
Detected average lo-cut frequency: 9.772240e+003 Hz
Maximum probablis boundary frequency: 2.189100e+004 Hz
Coefficient of nonlinearity of a phase: 1.197595e+000
First order smothness: 3.861421e-001
Second order smothness: 7.067163e-001
------------------------------------------------------------
This track looks like CDDA with probability 100%
===========================================
Track: 03 Piano Concerto № 5 Es-Dur Op 75 «Emperor» – III. Rondo Allegro
Processing file: [03 Piano Concerto № 5 Es-Dur Op 75 «Emperor» – III. Rondo Allegro.aucdtect]
Detected average hi-boundary frequency: 2.006633e+004 Hz
Detected average lo-boundary frequency: 1.309607e+004 Hz
Detected average hi-cut frequency: 2.165850e+004 Hz
Detected average lo-cut frequency: 8.910259e+003 Hz
Maximum probablis boundary frequency: 2.189100e+004 Hz
Coefficient of nonlinearity of a phase: 9.074139e-001
First order smothness: 3.539041e-001
Second order smothness: 7.100232e-001
------------------------------------------------------------
This track looks like CDDA with probability 100%
===========================================
Track: 04 Piano Sonata № 5 G-Dur K 283 – I. Allegro
Processing file: [04 Piano Sonata № 5 G-Dur K 283 – I. Allegro.aucdtect]
Detected average hi-boundary frequency: 2.000938e+004 Hz
Detected average lo-boundary frequency: 1.127552e+004 Hz
Detected average hi-cut frequency: 2.179472e+004 Hz
Detected average lo-cut frequency: 1.144597e+004 Hz
Maximum probablis boundary frequency: 2.189100e+004 Hz
Coefficient of nonlinearity of a phase: 1.337447e+000
First order smothness: 4.229676e-001
Second order smothness: 7.620807e-001
------------------------------------------------------------
This track looks like CDDA with probability 100%
===========================================
Track: 05 Piano Sonata № 5 G-Dur K 283 – II. Andante
Processing file: [05 Piano Sonata № 5 G-Dur K 283 – II. Andante.aucdtect]
Detected average hi-boundary frequency: 1.987244e+004 Hz
Detected average lo-boundary frequency: 1.058491e+004 Hz
Detected average hi-cut frequency: 2.183440e+004 Hz
Detected average lo-cut frequency: 1.162655e+004 Hz
Maximum probablis boundary frequency: 2.189100e+004 Hz
Coefficient of nonlinearity of a phase: 1.677639e+000
First order smothness: 4.287098e-001
Second order smothness: 7.801240e-001
------------------------------------------------------------
This track looks like CDDA with probability 100%
===========================================
Track: 06 Piano Sonata № 5 G-Dur K 283 – III. Presto
Processing file: [06 Piano Sonata № 5 G-Dur K 283 – III. Presto.aucdtect]
Detected average hi-boundary frequency: 1.996715e+004 Hz
Detected average lo-boundary frequency: 1.191218e+004 Hz
Detected average hi-cut frequency: 2.179896e+004 Hz
Detected average lo-cut frequency: 1.124069e+004 Hz
Maximum probablis boundary frequency: 2.189100e+004 Hz
Coefficient of nonlinearity of a phase: 1.446173e+000
First order smothness: 3.928850e-001
Second order smothness: 7.582446e-001
------------------------------------------------------------
This track looks like CDDA with probability 100%
===========================================
Track: 07 Piano Sonata № 11 A-Dur K 331 – I. Andante Grazioso
Processing file: [07 Piano Sonata № 11 A-Dur K 331 – I. Andante Grazioso.aucdtect]
Detected average hi-boundary frequency: 1.995704e+004 Hz
Detected average lo-boundary frequency: 1.054324e+004 Hz
Detected average hi-cut frequency: 2.188888e+004 Hz
Detected average lo-cut frequency: 1.370452e+004 Hz
Maximum probablis boundary frequency: 2.189100e+004 Hz
Coefficient of nonlinearity of a phase: 1.349471e+000
First order smothness: 4.155844e-001
Second order smothness: 8.274583e-001
------------------------------------------------------------
This track looks like CDDA with probability 100%
===========================================
Track: 08 Piano Sonata № 11 A-Dur K 331 – II. Variations
Processing file: [08 Piano Sonata № 11 A-Dur K 331 – II. Variations.aucdtect]
Detected average hi-boundary frequency: 2.010072e+004 Hz
Detected average lo-boundary frequency: 1.149997e+004 Hz
Detected average hi-cut frequency: 2.187485e+004 Hz
Detected average lo-cut frequency: 1.418243e+004 Hz
Maximum probablis boundary frequency: 2.189100e+004 Hz
Coefficient of nonlinearity of a phase: 1.577598e+000
First order smothness: 4.319149e-001
Second order smothness: 7.957447e-001
------------------------------------------------------------
This track looks like CDDA with probability 100%
===========================================
Track: 09 Piano Sonata № 11 A-Dur K 331 – III. Minuetto
Processing file: [09 Piano Sonata № 11 A-Dur K 331 – III. Minuetto.aucdtect]
Detected average hi-boundary frequency: 1.994054e+004 Hz
Detected average lo-boundary frequency: 1.115137e+004 Hz
Detected average hi-cut frequency: 2.185101e+004 Hz
Detected average lo-cut frequency: 1.302379e+004 Hz
Maximum probablis boundary frequency: 2.189100e+004 Hz
Coefficient of nonlinearity of a phase: 1.522804e+000
First order smothness: 4.286325e-001
Second order smothness: 8.004274e-001
------------------------------------------------------------
This track looks like CDDA with probability 100%
===========================================
Track: 10 Piano Sonata № 11 A-Dur K 331 – IV. Trio
Processing file: [10 Piano Sonata № 11 A-Dur K 331 – IV. Trio.aucdtect]
Detected average hi-boundary frequency: 1.998590e+004 Hz
Detected average lo-boundary frequency: 1.113302e+004 Hz
Detected average hi-cut frequency: 2.182827e+004 Hz
Detected average lo-cut frequency: 1.278683e+004 Hz
Maximum probablis boundary frequency: 2.189100e+004 Hz
Coefficient of nonlinearity of a phase: 1.503401e+000
First order smothness: 4.072770e-001
Second order smothness: 7.887324e-001
------------------------------------------------------------
This track looks like CDDA with probability 100%
===========================================
Track: 11 Piano Sonata № 11 A-Dur K 331 – V. Alla Turca
Processing file: [11 Piano Sonata № 11 A-Dur K 331 – V. Alla Turca.aucdtect]
Detected average hi-boundary frequency: 1.996302e+004 Hz
Detected average lo-boundary frequency: 1.092618e+004 Hz
Detected average hi-cut frequency: 2.185467e+004 Hz
Detected average lo-cut frequency: 1.331807e+004 Hz
Maximum probablis boundary frequency: 2.189100e+004 Hz
Coefficient of nonlinearity of a phase: 1.159166e+000
First order smothness: 4.411331e-001
Second order smothness: 7.961050e-001
------------------------------------------------------------
This track looks like CDDA with probability 100%
===========================================
Track: 12 Piano Sonata № 11 A-Dur K 331 – VI. Allegretto
Processing file: [12 Piano Sonata № 11 A-Dur K 331 – VI. Allegretto.aucdtect]
Detected average hi-boundary frequency: 2.009500e+004 Hz
Detected average lo-boundary frequency: 1.177660e+004 Hz
Detected average hi-cut frequency: 2.183040e+004 Hz
Detected average lo-cut frequency: 1.299725e+004 Hz
Maximum probablis boundary frequency: 2.189100e+004 Hz
Coefficient of nonlinearity of a phase: 1.491136e+000
First order smothness: 4.030380e-001
Second order smothness: 7.792405e-001
------------------------------------------------------------
This track looks like CDDA with probability 100%
===========================================
-Spectrogram -CD 2 [01h11'13"]
Wolfgang Amadeus Mozart
(01-03) Piano Concerto № 20 d-moll K 466 [28'47"]
(04-06) Piano Concerto № 9 Es-Dur K 271 «Jeunehomme» [30'40"]
(07-09) Piano Sonata № 15 C-Dur K 545 [11'46"]-

CUE
REM GENRE "Classical"
REM DATE "1993"
PERFORMER "Mozart"
TITLE "Piano Works CD2"
FILE "CD2.ape" WAVE
TRACK 01 AUDIO
PERFORMER "Mozart"
TITLE "Piano Concerto № 20 d-moll K 466 – I. Allegro"
INDEX 01 00:00:00
TRACK 02 AUDIO
PERFORMER "Mozart"
TITLE "Piano Concerto № 20 d-moll K 466 – II. Romanze"
INDEX 01 12:22:00
TRACK 03 AUDIO
PERFORMER "Mozart"
TITLE "Piano Concerto № 20 d-moll K 466 – III. Rondo"
INDEX 01 21:08:38
TRACK 04 AUDIO
PERFORMER "Mozart"
TITLE "Piano Concerto № 9 Es-Dur K 271 «Jeunehomme» – I. Allegro"
INDEX 01 28:47:00
TRACK 05 AUDIO
PERFORMER "Mozart"
TITLE "Piano Concerto № 9 Es-Dur K 271 «Jeunehomme» – II. Andantino"
INDEX 01 38:39:00
TRACK 06 AUDIO
PERFORMER "Mozart"
TITLE "Piano Concerto № 9 Es-Dur K 271 «Jeunehomme» – III. Rondo"
INDEX 01 49:53:00
TRACK 07 AUDIO
PERFORMER "Mozart"
TITLE "Piano Sonata № 15 C-Dur K 545 – I. Allegro"
INDEX 01 59:27:00
TRACK 08 AUDIO
PERFORMER "Mozart"
TITLE "Piano Sonata № 15 C-Dur K 545 – II. Andante"
INDEX 01 64:11:00
TRACK 09 AUDIO
PERFORMER "Mozart"
TITLE "Piano Sonata № 15 C-Dur K 545 – III. Rondo. Allegro"
INDEX 01 69:45:00
-fooCDtect
fooCDtect - foobar2000 + auCDtect, baralgin.
auCDtect: CD records authenticity detector, version 0.8.2
Copyright (c) 2004 Oleg Berngardt. All rights reserved.
Copyright (c) 2004 Alexander Djourik. All rights reserved.
mode: 0
===========================================
Track: 01 Piano Concerto № 20 d-moll K 466 – I. Allegro
Processing file: [01 Piano Concerto № 20 d-moll K 466 – I. Allegro.aucdtect]
Detected average hi-boundary frequency: 2.041294e+004 Hz
Detected average lo-boundary frequency: 1.296896e+004 Hz
Detected average hi-cut frequency: 1.861323e+004 Hz
Detected average lo-cut frequency: 5.750344e+003 Hz
Maximum probablis boundary frequency: 2.189100e+004 Hz
Coefficient of nonlinearity of a phase: 1.427465e+000
First order smothness: 3.630878e-001
Second order smothness: 6.696002e-001
------------------------------------------------------------
This track looks like MPEG with probability 100%
===========================================
Track: 02 Piano Concerto № 20 d-moll K 466 – II. Romanze
Processing file: [02 Piano Concerto № 20 d-moll K 466 – II. Romanze.aucdtect]
Detected average hi-boundary frequency: 2.038925e+004 Hz
Detected average lo-boundary frequency: 1.239012e+004 Hz
Detected average hi-cut frequency: 1.854086e+004 Hz
Detected average lo-cut frequency: 4.470833e+003 Hz
Maximum probablis boundary frequency: 2.189100e+004 Hz
Coefficient of nonlinearity of a phase: 1.241332e+000
First order smothness: 3.824568e-001
Second order smothness: 6.507236e-001
------------------------------------------------------------
This track looks like MPEG with probability 100%
===========================================
Track: 03 Piano Concerto № 20 d-moll K 466 – III. Rondo
Processing file: [03 Piano Concerto № 20 d-moll K 466 – III. Rondo.aucdtect]
Detected average hi-boundary frequency: 2.042645e+004 Hz
Detected average lo-boundary frequency: 1.273616e+004 Hz
Detected average hi-cut frequency: 1.856533e+004 Hz
Detected average lo-cut frequency: 5.388676e+003 Hz
Maximum probablis boundary frequency: 2.189100e+004 Hz
Coefficient of nonlinearity of a phase: 2.142297e+000
First order smothness: 3.870302e-001
Second order smothness: 6.586121e-001
------------------------------------------------------------
This track looks like MPEG with probability 100%
===========================================
Track: 04 Piano Concerto № 9 Es-Dur K 271 «Jeunehomme» – I. Allegro
Processing file: [04 Piano Concerto № 9 Es-Dur K 271 «Jeunehomme» – I. Allegro.aucdtect]
Detected average hi-boundary frequency: 2.031074e+004 Hz
Detected average lo-boundary frequency: 1.289591e+004 Hz
Detected average hi-cut frequency: 1.952996e+004 Hz
Detected average lo-cut frequency: 6.288336e+003 Hz
Maximum probablis boundary frequency: 2.189100e+004 Hz
Coefficient of nonlinearity of a phase: 1.397357e+000
First order smothness: 3.689612e-001
Second order smothness: 6.733502e-001
------------------------------------------------------------
This track looks like MPEG with probability 99%
===========================================
Track: 05 Piano Concerto № 9 Es-Dur K 271 «Jeunehomme» – II. Andantino
Processing file: [05 Piano Concerto № 9 Es-Dur K 271 «Jeunehomme» – II. Andantino.aucdtect]
Detected average hi-boundary frequency: 2.036332e+004 Hz
Detected average lo-boundary frequency: 1.175216e+004 Hz
Detected average hi-cut frequency: 1.961205e+004 Hz
Detected average lo-cut frequency: 4.808433e+003 Hz
Maximum probablis boundary frequency: 2.189100e+004 Hz
Coefficient of nonlinearity of a phase: 1.615168e+000
First order smothness: 3.952618e-001
Second order smothness: 6.575229e-001
------------------------------------------------------------
This track looks like MPEG with probability 100%
===========================================
Track: 06 Piano Concerto № 9 Es-Dur K 271 «Jeunehomme» – III. Rondo
Processing file: [06 Piano Concerto № 9 Es-Dur K 271 «Jeunehomme» – III. Rondo.aucdtect]
Detected average hi-boundary frequency: 2.032937e+004 Hz
Detected average lo-boundary frequency: 1.266801e+004 Hz
Detected average hi-cut frequency: 1.963749e+004 Hz
Detected average lo-cut frequency: 5.227729e+003 Hz
Maximum probablis boundary frequency: 2.189100e+004 Hz
Coefficient of nonlinearity of a phase: 1.573187e+000
First order smothness: 3.678407e-001
Second order smothness: 6.586570e-001
------------------------------------------------------------
This track looks like MPEG with probability 100%
===========================================
Track: 07 Piano Sonata № 15 C-Dur K 545 – I. Allegro
Processing file: [07 Piano Sonata № 15 C-Dur K 545 – I. Allegro.aucdtect]
Detected average hi-boundary frequency: 2.045188e+004 Hz
Detected average lo-boundary frequency: 1.189864e+004 Hz
Detected average hi-cut frequency: 1.864281e+004 Hz
Detected average lo-cut frequency: 3.891331e+003 Hz
Maximum probablis boundary frequency: 2.189100e+004 Hz
Coefficient of nonlinearity of a phase: 1.769046e+000
First order smothness: 4.353406e-001
Second order smothness: 6.459362e-001
------------------------------------------------------------
This track looks like MPEG with probability 100%
===========================================
Track: 08 Piano Sonata № 15 C-Dur K 545 – II. Andante
Processing file: [08 Piano Sonata № 15 C-Dur K 545 – II. Andante.aucdtect]
Detected average hi-boundary frequency: 2.041486e+004 Hz
Detected average lo-boundary frequency: 1.185077e+004 Hz
Detected average hi-cut frequency: 1.865950e+004 Hz
Detected average lo-cut frequency: 2.946592e+003 Hz
Maximum probablis boundary frequency: 2.189100e+004 Hz
Coefficient of nonlinearity of a phase: 1.462494e+000
First order smothness: 4.189645e-001
Second order smothness: 6.316826e-001
------------------------------------------------------------
This track looks like MPEG with probability 100%
===========================================
Track: 09 Piano Sonata № 15 C-Dur K 545 – III. Rondo. Allegro
Processing file: [09 Piano Sonata № 15 C-Dur K 545 – III. Rondo. Allegro.aucdtect]
Detected average hi-boundary frequency: 2.044859e+004 Hz
Detected average lo-boundary frequency: 1.213945e+004 Hz
Detected average hi-cut frequency: 1.865718e+004 Hz
Detected average lo-cut frequency: 4.389773e+003 Hz
Maximum probablis boundary frequency: 2.189100e+004 Hz
Coefficient of nonlinearity of a phase: 1.555180e+000
First order smothness: 4.100642e-001
Second order smothness: 6.466809e-001
------------------------------------------------------------
This track looks like MPEG with probability 100%
===========================================
-Spectrogram -
Особая благодарность metachrom за составление релиза
[Профиль] [ЛС]
Показать сообщения:    
Ответить на тему

Текущее время: Сегодня 20:39

Часовой пояс: GMT + 3



Вы не можете начинать темы
Вы не можете отвечать на сообщения
Вы не можете редактировать свои сообщения
Вы не можете удалять свои сообщения
Вы не можете голосовать в опросах
Вы не можете прикреплять файлы к сообщениям
Вы не можете скачивать файлы