(Bluegrass, Mandolin) [CD] Frank Wakefield - That Was Now, This is Then - 1996, FLAC (tracks+.cue), lossless

Ответить на тему
 
Автор Сообщение

cawm2013 ®

Стаж: 3 года 2 месяца

Сообщений: 3

Пост 08-Янв-2017 17:40

[Цитировать]

Frank Wakefield / That Was Now, This is Then
Жанр: Bluegrass, Mandolin
Носитель: CD
Год издания: 1996
Издатель (лейбл): Rosewood Records
Номер по каталогу: RA-62096
Аудиокодек: FLAC (*.flac)
Тип рипа: tracks+.cue
Битрейт аудио: lossless
Продолжительность: 00:53:12
Источник (релизер): can't recall
Наличие сканов в содержимом раздачи: нет
Треклист:
1. Mexican Stomp
2. Last Thing on My Mind/Why Not Confess
3. Miss Izzy
4. Blackberry Blossom
5. Sleepy Eyed John
6. Sim and Birdie
7. Rockwood
8. Emory Gap Blues
9. New Camptown Races
10. Waltz in Bluegrass
11. Echo Blues
12. Sabbatical
13. Adirondack Spring
14. Black Mountain Rag
15. Roane County Coal Train
Лог создания рипа
Exact Audio Copy V1.0 beta 3 from 29. August 2011
EAC extraction logfile from 24. July 2012, 2:36
Frank Wakefield / That Was Now...This Is Then
Used drive : HP DVD Writer 1040r Adapter: 0 ID: 1
Read mode : Secure
Utilize accurate stream : Yes
Defeat audio cache : Yes
Make use of C2 pointers : No
Read offset correction : 6
Overread into Lead-In and Lead-Out : No
Fill up missing offset samples with silence : Yes
Delete leading and trailing silent blocks : No
Null samples used in CRC calculations : Yes
Used interface : Native Win32 interface for Win NT & 2000
Gap handling : Appended to previous track
Used output format : User Defined Encoder
Selected bitrate : 1024 kBit/s
Quality : High
Add ID3 tag : No
Command line compressor : C:\Program Files\Exact Audio Copy\Flac\flac.exe
Additional command line options : -8 -V -T "ARTIST=%artist%" -T "TITLE=%title%" -T "ALBUM=%albumtitle%" -T "DATE=%year%" -T "TRACKNUMBER=%tracknr%" -T "GENRE=%genre%" -T "PERFORMER=%albuminterpret%" -T "COMPOSER=%composer%" %haslyrics%--tag-from-file=LYRICS="%lyricsfile%"%haslyrics% -T "ALBUMARTIST=%albumartist%" -T "DISCNUMBER=%cdnumber%" -T "TOTALDISCS=%totalcds%" -T "TOTALTRACKS=%numtracks%" -T "COMMENT=%comment%" %source% -o %dest%
TOC of the extracted CD
Track | Start | Length | Start sector | End sector
---------------------------------------------------------
1 | 0:00.30 | 2:44.02 | 30 | 12331
2 | 2:44.32 | 3:42.38 | 12332 | 29019
3 | 6:26.70 | 2:33.08 | 29020 | 40502
4 | 9:00.03 | 3:11.14 | 40503 | 54841
5 | 12:11.17 | 3:45.39 | 54842 | 71755
6 | 15:56.56 | 3:33.72 | 71756 | 87802
7 | 19:30.53 | 2:55.51 | 87803 | 100978
8 | 22:26.29 | 3:14.36 | 100979 | 115564
9 | 25:40.65 | 3:46.40 | 115565 | 132554
10 | 29:27.30 | 6:59.71 | 132555 | 164050
11 | 36:27.26 | 2:07.07 | 164051 | 173582
12 | 38:34.33 | 3:13.04 | 173583 | 188061
13 | 41:47.37 | 3:04.69 | 188062 | 201930
14 | 44:52.31 | 2:57.68 | 201931 | 215273
15 | 47:50.24 | 5:20.56 | 215274 | 239329
Track 1
Filename C:\Program Files\Exact Audio Copy\Frank Wakefield - That Was Now, This is Then (1996) [FLAC] {Rosewood Records - RA-62096}\01 Mexican Stomp.wav
Pre-gap length 0:00:02.40
Peak level 100.0 %
Extraction speed 1.5 X
Track quality 99.9 %
Test CRC 0EC4C24B
Copy CRC 0EC4C24B
Track not present in AccurateRip database
Copy OK
Track 2
Filename C:\Program Files\Exact Audio Copy\Frank Wakefield - That Was Now, This is Then (1996) [FLAC] {Rosewood Records - RA-62096}\02 Why Not Confess.wav
Peak level 100.0 %
Extraction speed 1.9 X
Track quality 100.0 %
Test CRC 78798E6B
Copy CRC 78798E6B
Track not present in AccurateRip database
Copy OK
Track 3
Filename C:\Program Files\Exact Audio Copy\Frank Wakefield - That Was Now, This is Then (1996) [FLAC] {Rosewood Records - RA-62096}\03 Miss Izzy.wav
Peak level 100.0 %
Extraction speed 1.9 X
Track quality 100.0 %
Test CRC 5BC270CD
Copy CRC 5BC270CD
Track not present in AccurateRip database
Copy OK
Track 4
Filename C:\Program Files\Exact Audio Copy\Frank Wakefield - That Was Now, This is Then (1996) [FLAC] {Rosewood Records - RA-62096}\04 Blackberry Blossom.wav
Peak level 91.0 %
Extraction speed 2.1 X
Track quality 100.0 %
Test CRC 89C9840B
Copy CRC 89C9840B
Track not present in AccurateRip database
Copy OK
Track 5
Filename C:\Program Files\Exact Audio Copy\Frank Wakefield - That Was Now, This is Then (1996) [FLAC] {Rosewood Records - RA-62096}\05 Sleepy Eyed John.wav
Peak level 100.0 %
Extraction speed 2.3 X
Track quality 100.0 %
Test CRC 3AFA124D
Copy CRC 3AFA124D
Track not present in AccurateRip database
Copy OK
Track 6
Filename C:\Program Files\Exact Audio Copy\Frank Wakefield - That Was Now, This is Then (1996) [FLAC] {Rosewood Records - RA-62096}\06 Sim and Birdie.wav
Peak level 100.0 %
Extraction speed 2.5 X
Track quality 100.0 %
Test CRC 11141673
Copy CRC 11141673
Track not present in AccurateRip database
Copy OK
Track 7
Filename C:\Program Files\Exact Audio Copy\Frank Wakefield - That Was Now, This is Then (1996) [FLAC] {Rosewood Records - RA-62096}\07 RockWood.wav
Peak level 100.0 %
Extraction speed 2.5 X
Track quality 100.0 %
Test CRC 9F12A5DB
Copy CRC 9F12A5DB
Track not present in AccurateRip database
Copy OK
Track 8
Filename C:\Program Files\Exact Audio Copy\Frank Wakefield - That Was Now, This is Then (1996) [FLAC] {Rosewood Records - RA-62096}\08 Emory Gap Blues.wav
Peak level 100.0 %
Extraction speed 2.6 X
Track quality 100.0 %
Test CRC 2FDDE8E2
Copy CRC 2FDDE8E2
Track not present in AccurateRip database
Copy OK
Track 9
Filename C:\Program Files\Exact Audio Copy\Frank Wakefield - That Was Now, This is Then (1996) [FLAC] {Rosewood Records - RA-62096}\09 New Camptown Races.wav
Peak level 100.0 %
Extraction speed 2.8 X
Track quality 100.0 %
Test CRC 07943BE6
Copy CRC 07943BE6
Track not present in AccurateRip database
Copy OK
Track 10
Filename C:\Program Files\Exact Audio Copy\Frank Wakefield - That Was Now, This is Then (1996) [FLAC] {Rosewood Records - RA-62096}\10 Waltz in Bluegrass.wav
Peak level 90.8 %
Extraction speed 2.8 X
Track quality 99.9 %
Test CRC C20CB0CE
Copy CRC C20CB0CE
Track not present in AccurateRip database
Copy OK
Track 11
Filename C:\Program Files\Exact Audio Copy\Frank Wakefield - That Was Now, This is Then (1996) [FLAC] {Rosewood Records - RA-62096}\11 Echo Blues.wav
Peak level 100.0 %
Extraction speed 2.8 X
Track quality 100.0 %
Test CRC 91EA0EC6
Copy CRC 91EA0EC6
Track not present in AccurateRip database
Copy OK
Track 12
Filename C:\Program Files\Exact Audio Copy\Frank Wakefield - That Was Now, This is Then (1996) [FLAC] {Rosewood Records - RA-62096}\12 Sabbatical.wav
Peak level 96.8 %
Extraction speed 3.1 X
Track quality 100.0 %
Test CRC 0E13DAD1
Copy CRC 0E13DAD1
Track not present in AccurateRip database
Copy OK
Track 13
Filename C:\Program Files\Exact Audio Copy\Frank Wakefield - That Was Now, This is Then (1996) [FLAC] {Rosewood Records - RA-62096}\13 Adirondack Spring.wav
Peak level 100.0 %
Extraction speed 2.3 X
Track quality 99.9 %
Test CRC 16696DF7
Copy CRC 16696DF7
Track not present in AccurateRip database
Copy OK
Track 14
Filename C:\Program Files\Exact Audio Copy\Frank Wakefield - That Was Now, This is Then (1996) [FLAC] {Rosewood Records - RA-62096}\14 Black Mountain Rag.wav
Peak level 100.0 %
Extraction speed 3.3 X
Track quality 100.0 %
Test CRC 5FF7F6D4
Copy CRC 5FF7F6D4
Track not present in AccurateRip database
Copy OK
Track 15
Filename C:\Program Files\Exact Audio Copy\Frank Wakefield - That Was Now, This is Then (1996) [FLAC] {Rosewood Records - RA-62096}\15 Roane County Coal Train.wav
Peak level 100.0 %
Extraction speed 3.6 X
Track quality 100.0 %
Test CRC 72FF119C
Copy CRC 72FF119C
Track not present in AccurateRip database
Copy OK
None of the tracks are present in the AccurateRip database
No errors occurred
End of status report
==== Log checksum 512F89AFF489A3BC3F0BC659AB17FA43EF7E35226AF6F7418A41B58CAC2A35CC ====
Содержание индексной карты (.CUE)
REM GENRE Bluegrass
REM DATE 1996
REM DISCID E60C770F
REM COMMENT "ExactAudioCopy v1.0b3"
CATALOG 0000000000000
PERFORMER "Frank Wakefield"
TITLE "That Was Now...This Is Then"
FILE "01 Mexican Stomp.wav" WAVE
TRACK 01 AUDIO
TITLE "Mexican Stomp"
PERFORMER "Frank Wakefield"
PREGAP 00:00:30
INDEX 01 00:00:00
FILE "02 Why Not Confess.wav" WAVE
TRACK 02 AUDIO
TITLE "Why Not Confess"
PERFORMER "Frank Wakefield"
INDEX 01 00:00:00
FILE "03 Miss Izzy.wav" WAVE
TRACK 03 AUDIO
TITLE "Miss Izzy"
PERFORMER "Frank Wakefield"
INDEX 01 00:00:00
FILE "04 Blackberry Blossom.wav" WAVE
TRACK 04 AUDIO
TITLE "Blackberry Blossom"
PERFORMER "Frank Wakefield"
INDEX 01 00:00:00
FILE "05 Sleepy Eyed John.wav" WAVE
TRACK 05 AUDIO
TITLE "Sleepy Eyed John"
PERFORMER "Frank Wakefield"
INDEX 01 00:00:00
FILE "06 Sim and Birdie.wav" WAVE
TRACK 06 AUDIO
TITLE "Sim and Birdie"
PERFORMER "Frank Wakefield"
INDEX 01 00:00:00
FILE "07 RockWood.wav" WAVE
TRACK 07 AUDIO
TITLE "RockWood"
PERFORMER "Frank Wakefield"
INDEX 01 00:00:00
FILE "08 Emory Gap Blues.wav" WAVE
TRACK 08 AUDIO
TITLE "Emory Gap Blues"
PERFORMER "Frank Wakefield"
INDEX 01 00:00:00
FILE "09 New Camptown Races.wav" WAVE
TRACK 09 AUDIO
TITLE "New Camptown Races"
PERFORMER "Frank Wakefield"
INDEX 01 00:00:00
FILE "10 Waltz in Bluegrass.wav" WAVE
TRACK 10 AUDIO
TITLE "Waltz in Bluegrass"
PERFORMER "Frank Wakefield"
INDEX 01 00:00:00
FILE "11 Echo Blues.wav" WAVE
TRACK 11 AUDIO
TITLE "Echo Blues"
PERFORMER "Frank Wakefield"
INDEX 01 00:00:00
FILE "12 Sabbatical.wav" WAVE
TRACK 12 AUDIO
TITLE "Sabbatical"
PERFORMER "Frank Wakefield"
INDEX 01 00:00:00
FILE "13 Adirondack Spring.wav" WAVE
TRACK 13 AUDIO
TITLE "Adirondack Spring"
PERFORMER "Frank Wakefield"
INDEX 01 00:00:00
FILE "14 Black Mountain Rag.wav" WAVE
TRACK 14 AUDIO
TITLE "Black Mountain Rag"
PERFORMER "Frank Wakefield"
INDEX 01 00:00:00
FILE "15 Roane County Coal Train.wav" WAVE
TRACK 15 AUDIO
TITLE "Roane County Coal Train"
PERFORMER "Frank Wakefield"
INDEX 01 00:00:00

Особая благодарность mandof5 за составление релиза
[Профиль] [ЛС]
Показать сообщения:    
Ответить на тему

Текущее время: Сегодня 01:55

Часовой пояс: GMT + 3



Вы не можете начинать темы
Вы не можете отвечать на сообщения
Вы не можете редактировать свои сообщения
Вы не можете удалять свои сообщения
Вы не можете голосовать в опросах
Вы не можете прикреплять файлы к сообщениям
Вы не можете скачивать файлы