(Bluegrass) [CD] Ashby Frank - First Crossing - 1999, FLAC (tracks+.cue), lossless

Ответить на тему
 
Автор Сообщение

fhyhj ®

Стаж: 6 лет 9 месяцев

Сообщений: 3

Пост 07-Янв-2017 04:25

[Цитировать]

Ashby Frank / First Crossing
Жанр: Bluegrass
Носитель: CD
Страна-производитель диска (релиза): USA
Год издания: 1999
Издатель (лейбл): Blue Road Records
Номер по каталогу: BR-CD 1901
Аудиокодек: FLAC (*.flac)
Тип рипа: tracks+.cue
Битрейт аудио: lossless
Продолжительность: 00:39:51
Источник (релизер): don't recall
Наличие сканов в содержимом раздачи: нет
Треклист:
1. Goin' Across The Sea
2. Suzanne
3. Soldier's Joy
4. All Because of Me
5. Somewhere Between
6. Rough Edges
7. I'll Meet You
8. Free As A Bird
9. Tombstone Junction
10. Carolina Smoky Mountain Home
11. Sure-Fire
12. Philadelphia Lawyer
13. Four Hundred Miles
14. Final Crossing
Лог создания рипа
xact Audio Copy V1.0 beta 3 from 29. August 2011
EAC extraction logfile from 22. November 2012, 13:30
Ashby Frank / First Crossing
Used drive : HP DVD Writer 1040r Adapter: 0 ID: 1
Read mode : Secure
Utilize accurate stream : Yes
Defeat audio cache : Yes
Make use of C2 pointers : No
Read offset correction : 6
Overread into Lead-In and Lead-Out : No
Fill up missing offset samples with silence : Yes
Delete leading and trailing silent blocks : No
Null samples used in CRC calculations : Yes
Used interface : Native Win32 interface for Win NT & 2000
Gap handling : Appended to previous track
Used output format : User Defined Encoder
Selected bitrate : 1024 kBit/s
Quality : High
Add ID3 tag : No
Command line compressor : C:\Program Files\Exact Audio Copy\Flac\flac.exe
Additional command line options : -8 -V -T "ARTIST=%artist%" -T "TITLE=%title%" -T "ALBUM=%albumtitle%" -T "DATE=%year%" -T "TRACKNUMBER=%tracknr%" -T "GENRE=%genre%" -T "PERFORMER=%albuminterpret%" -T "COMPOSER=%composer%" %haslyrics%--tag-from-file=LYRICS="%lyricsfile%"%haslyrics% -T "ALBUMARTIST=%albumartist%" -T "DISCNUMBER=%cdnumber%" -T "TOTALDISCS=%totalcds%" -T "TOTALTRACKS=%numtracks%" -T "COMMENT=%comment%" %source% -o %dest%
TOC of the extracted CD
Track | Start | Length | Start sector | End sector
---------------------------------------------------------
1 | 0:00.00 | 2:44.66 | 0 | 12365
2 | 2:44.66 | 2:52.14 | 12366 | 25279
3 | 5:37.05 | 2:53.06 | 25280 | 38260
4 | 8:30.11 | 3:11.73 | 38261 | 52658
5 | 11:42.09 | 3:45.58 | 52659 | 69591
6 | 15:27.67 | 2:14.40 | 69592 | 79681
7 | 17:42.32 | 2:24.05 | 79682 | 90486
8 | 20:06.37 | 2:46.47 | 90487 | 102983
9 | 22:53.09 | 2:59.42 | 102984 | 116450
10 | 25:52.51 | 2:50.60 | 116451 | 129260
11 | 28:43.36 | 2:35.35 | 129261 | 140920
12 | 31:18.71 | 3:35.08 | 140921 | 157053
13 | 34:54.04 | 3:10.08 | 157054 | 171311
14 | 38:04.12 | 1:41.16 | 171312 | 178902
Track 1
Filename C:\Program Files\Exact Audio Copy\Ashby Frank - First Crossing (1999) [FLAC] {Blue Road Records - BR-CD 1901}\01 Goin' Across The Sea.wav
Pre-gap length 0:00:02.00
Peak level 100.0 %
Extraction speed 1.7 X
Track quality 100.0 %
Test CRC 1005BD9E
Copy CRC 1005BD9E
Track not present in AccurateRip database
Copy OK
Track 2
Filename C:\Program Files\Exact Audio Copy\Ashby Frank - First Crossing (1999) [FLAC] {Blue Road Records - BR-CD 1901}\02 Suzanne.wav
Pre-gap length 0:00:04.66
Peak level 100.0 %
Extraction speed 1.8 X
Track quality 100.0 %
Test CRC DD2AA5F5
Copy CRC DD2AA5F5
Track not present in AccurateRip database
Copy OK
Track 3
Filename C:\Program Files\Exact Audio Copy\Ashby Frank - First Crossing (1999) [FLAC] {Blue Road Records - BR-CD 1901}\03 Soldier's Joy.wav
Pre-gap length 0:00:03.33
Peak level 100.0 %
Extraction speed 1.9 X
Track quality 100.0 %
Test CRC FCBC0238
Copy CRC FCBC0238
Track not present in AccurateRip database
Copy OK
Track 4
Filename C:\Program Files\Exact Audio Copy\Ashby Frank - First Crossing (1999) [FLAC] {Blue Road Records - BR-CD 1901}\04 All Because Of Me.wav
Pre-gap length 0:00:02.00
Peak level 100.0 %
Extraction speed 2.1 X
Track quality 100.0 %
Test CRC 43F6FFBB
Copy CRC 43F6FFBB
Track not present in AccurateRip database
Copy OK
Track 5
Filename C:\Program Files\Exact Audio Copy\Ashby Frank - First Crossing (1999) [FLAC] {Blue Road Records - BR-CD 1901}\05 Somewhere Between.wav
Pre-gap length 0:00:03.34
Peak level 100.0 %
Extraction speed 2.0 X
Track quality 99.9 %
Test CRC C59AF123
Copy CRC C59AF123
Track not present in AccurateRip database
Copy OK
Track 6
Filename C:\Program Files\Exact Audio Copy\Ashby Frank - First Crossing (1999) [FLAC] {Blue Road Records - BR-CD 1901}\06 Rough Edges.wav
Pre-gap length 0:00:03.34
Peak level 100.0 %
Extraction speed 2.2 X
Track quality 100.0 %
Test CRC 65EAA63B
Copy CRC 65EAA63B
Track not present in AccurateRip database
Copy OK
Track 7
Filename C:\Program Files\Exact Audio Copy\Ashby Frank - First Crossing (1999) [FLAC] {Blue Road Records - BR-CD 1901}\07 I'll Meet You In The Morning.wav
Pre-gap length 0:00:03.34
Peak level 100.0 %
Extraction speed 1.8 X
Track quality 99.9 %
Test CRC A03CFBFC
Copy CRC A03CFBFC
Track not present in AccurateRip database
Copy OK
Track 8
Filename C:\Program Files\Exact Audio Copy\Ashby Frank - First Crossing (1999) [FLAC] {Blue Road Records - BR-CD 1901}\08 Free As A Bird.wav
Pre-gap length 0:00:03.33
Peak level 100.0 %
Extraction speed 1.9 X
Track quality 99.9 %
Test CRC 367E5DD5
Copy CRC 367E5DD5
Track not present in AccurateRip database
Copy OK
Track 9
Filename C:\Program Files\Exact Audio Copy\Ashby Frank - First Crossing (1999) [FLAC] {Blue Road Records - BR-CD 1901}\09 Tombstone Junction.wav
Pre-gap length 0:00:03.34
Peak level 100.0 %
Extraction speed 2.6 X
Track quality 100.0 %
Test CRC 09AE99A0
Copy CRC 09AE99A0
Track not present in AccurateRip database
Copy OK
Track 10
Filename C:\Program Files\Exact Audio Copy\Ashby Frank - First Crossing (1999) [FLAC] {Blue Road Records - BR-CD 1901}\10 Carolina Smoky Mountain Home.wav
Pre-gap length 0:00:03.33
Peak level 100.0 %
Extraction speed 2.7 X
Track quality 100.0 %
Test CRC CFC9B687
Copy CRC CFC9B687
Track not present in AccurateRip database
Copy OK
Track 11
Filename C:\Program Files\Exact Audio Copy\Ashby Frank - First Crossing (1999) [FLAC] {Blue Road Records - BR-CD 1901}\11 Sure-Fire.wav
Pre-gap length 0:00:03.34
Peak level 100.0 %
Extraction speed 2.7 X
Track quality 100.0 %
Test CRC D9CD6940
Copy CRC D9CD6940
Track not present in AccurateRip database
Copy OK
Track 12
Filename C:\Program Files\Exact Audio Copy\Ashby Frank - First Crossing (1999) [FLAC] {Blue Road Records - BR-CD 1901}\12 Philadelphia Lawyer.wav
Pre-gap length 0:00:03.33
Peak level 100.0 %
Extraction speed 2.3 X
Track quality 99.9 %
Test CRC B681BB08
Copy CRC B681BB08
Track not present in AccurateRip database
Copy OK
Track 13
Filename C:\Program Files\Exact Audio Copy\Ashby Frank - First Crossing (1999) [FLAC] {Blue Road Records - BR-CD 1901}\13 Four Hundred Miles Of Four Lane Highway.wav
Pre-gap length 0:00:03.34
Peak level 100.0 %
Extraction speed 3.0 X
Track quality 100.0 %
Test CRC 9096F853
Copy CRC 9096F853
Track not present in AccurateRip database
Copy OK
Track 14
Filename C:\Program Files\Exact Audio Copy\Ashby Frank - First Crossing (1999) [FLAC] {Blue Road Records - BR-CD 1901}\14 Final Crossing.wav
Pre-gap length 0:00:03.33
Peak level 100.0 %
Extraction speed 2.7 X
Track quality 100.0 %
Test CRC ED33F94B
Copy CRC ED33F94B
Track not present in AccurateRip database
Copy OK
None of the tracks are present in the AccurateRip database
No errors occurred
End of status report
---- CUETools DB Plugin V2.1.3
[CTDB TOCID: MkZcffuCrXTUL22HOFnTBweVO2E-] found, Submit result: already submitted
[2b7daed0] (1/1) Accurately ripped
==== Log checksum 5AEDCBFA94B9F084EAF04C1F6163D739A7E1688776715519A4D24AABA510BFA8 ====
Содержание индексной карты (.CUE)
REM GENRE Bluegrass
REM DATE 1999
REM DISCID BD09510E
REM COMMENT "ExactAudioCopy v1.0b3"
PERFORMER "Ashby Frank"
TITLE "First Crossing"
FILE "01 Goin' Across The Sea.wav" WAVE
TRACK 01 AUDIO
TITLE "Goin' Across The Sea"
PERFORMER "Ashby Frank"
INDEX 01 00:00:00
TRACK 02 AUDIO
TITLE "Suzanne"
PERFORMER "Ashby Frank"
INDEX 00 02:40:16
FILE "02 Suzanne.wav" WAVE
INDEX 01 00:00:00
TRACK 03 AUDIO
TITLE "Soldier's Joy"
PERFORMER "Ashby Frank"
INDEX 00 02:48:64
FILE "03 Soldier's Joy.wav" WAVE
INDEX 01 00:00:00
TRACK 04 AUDIO
TITLE "All Because Of Me"
PERFORMER "Ashby Frank"
INDEX 00 02:51:06
FILE "04 All Because Of Me.wav" WAVE
INDEX 01 00:00:00
TRACK 05 AUDIO
TITLE "Somewhere Between"
PERFORMER "Ashby Frank"
INDEX 00 03:08:47
FILE "05 Somewhere Between.wav" WAVE
INDEX 01 00:00:00
TRACK 06 AUDIO
TITLE "Rough Edges"
PERFORMER "Ashby Frank"
INDEX 00 03:42:32
FILE "06 Rough Edges.wav" WAVE
INDEX 01 00:00:00
TRACK 07 AUDIO
TITLE "I'll Meet You In The Morning"
PERFORMER "Ashby Frank"
INDEX 00 02:11:14
FILE "07 I'll Meet You In The Morning.wav" WAVE
INDEX 01 00:00:00
TRACK 08 AUDIO
TITLE "Free As A Bird"
PERFORMER "Ashby Frank"
INDEX 00 02:20:55
FILE "08 Free As A Bird.wav" WAVE
INDEX 01 00:00:00
TRACK 09 AUDIO
TITLE "Tombstone Junction"
PERFORMER "Ashby Frank"
INDEX 00 02:43:21
FILE "09 Tombstone Junction.wav" WAVE
INDEX 01 00:00:00
TRACK 10 AUDIO
TITLE "Carolina Smoky Mountain Home"
PERFORMER "Ashby Frank"
INDEX 00 02:56:17
FILE "10 Carolina Smoky Mountain Home.wav" WAVE
INDEX 01 00:00:00
TRACK 11 AUDIO
TITLE "Sure-Fire"
PERFORMER "Ashby Frank"
INDEX 00 02:47:34
FILE "11 Sure-Fire.wav" WAVE
INDEX 01 00:00:00
TRACK 12 AUDIO
TITLE "Philadelphia Lawyer"
PERFORMER "Ashby Frank"
INDEX 00 02:32:10
FILE "12 Philadelphia Lawyer.wav" WAVE
INDEX 01 00:00:00
TRACK 13 AUDIO
TITLE "Four Hundred Miles Of Four Lane Highway"
PERFORMER "Ashby Frank"
INDEX 00 03:31:57
FILE "13 Four Hundred Miles Of Four Lane Highway.wav" WAVE
INDEX 01 00:00:00
TRACK 14 AUDIO
TITLE "Final Crossing"
PERFORMER "Ashby Frank"
INDEX 00 03:06:58
FILE "14 Final Crossing.wav" WAVE
INDEX 01 00:00:00

Особая благодарность mandof5 за составление релиза

_________________
hmjhuh ujhujybu
[Профиль] [ЛС]
Показать сообщения:    
Ответить на тему

Текущее время: Сегодня 16:58

Часовой пояс: GMT + 3



Вы не можете начинать темы
Вы не можете отвечать на сообщения
Вы не можете редактировать свои сообщения
Вы не можете удалять свои сообщения
Вы не можете голосовать в опросах
Вы не можете прикреплять файлы к сообщениям
Вы не можете скачивать файлы