(Country rock) Blake Shelton - Original Album Series - 2012, FLAC (tracks+.cue), lossless

Ответить на тему
 
Автор Сообщение

MotE680 ®

Стаж: 4 года 11 месяцев

Сообщений: 1

Пост 05-Янв-2017 13:30

[Цитировать]

Blake Shelton - Original Album Series (2012)
Жанр: Country rock
Страна-производитель диска: US
Год первого выпуска: 2012
Год настоящего издания: 2012
Издатель (лейбл): Warner Music
Номер по каталогу: R2-532553
Format: 5xCD, Album, Box Set
Страна исполнителя (группы): US
Аудиокодек: FLAC (*.flac)
Тип рипа: tracks+.cue
Битрейт аудио: lossless
Источник (релизер): интернет
Наличие сканов в содержимом раздачи: да
CD1: Blake Shelton (2001)
Продолжительность: 00:35:15
Треклист:
01. Every Time I Look At You (02:57)
02. All Over Me (03:14)
03. She Doesn't Know She's Got It (03:18)
04. Austin (03:50)
05. Ol' Red (03:42)
06. I Thought There Was Time (03:24)
07. Same Old Song (03:50)
08. That's What I Call Home (03:17)
09. Problems At Home (04:00)
10. If I Was Your Man (03:39)

Лог создания рипа
Exact Audio Copy V1.0 beta 3 from 29. August 2011
EAC extraction logfile from 12. January 2013, 13:44
Blake Shelton / Blake Shelton
Used drive : HL-DT-STDVDRAM GH24NS95 Adapter: 1 ID: 0
Read mode : Secure
Utilize accurate stream : Yes
Defeat audio cache : Yes
Make use of C2 pointers : No
Read offset correction : 6
Overread into Lead-In and Lead-Out : No
Fill up missing offset samples with silence : Yes
Delete leading and trailing silent blocks : No
Null samples used in CRC calculations : Yes
Used interface : Installed external ASPI interface
Gap handling : Appended to previous track
Used output format : User Defined Encoder
Selected bitrate : 1024 kBit/s
Quality : High
Add ID3 tag : No
Command line compressor : C:\Program Files (x86)\Exact Audio Copy\Flac\flac.exe
Additional command line options : -8 -V -T "ARTIST=%artist%" -T "TITLE=%title%" -T "ALBUM=
%albumtitle%" -T "DATE=%year%" -T "TRACKNUMBER=%tracknr%" -T "TOTALTRACKS=%numtracks%" -T "GENRE=
%genre%" -T "ALBUMARTIST=%albumartist%" -T "ALBUM ARTIST=%albumartist%" -T "COMMENT=EAC V1.0 beta 3,
Secure Mode, Test & Copy, AccurateRip, FLAC 1.2.1b -8" %source%
TOC of the extracted CD
Track | Start | Length | Start sector | End sector
---------------------------------------------------------
1 | 0:00.33 | 2:57.22 | 33 | 13329
2 | 2:57.55 | 3:14.48 | 13330 | 27927
3 | 6:12.28 | 3:18.60 | 27928 | 42837
4 | 9:31.13 | 3:50.25 | 42838 | 60112
5 | 13:21.38 | 3:42.55 | 60113 | 76817
6 | 17:04.18 | 3:24.72 | 76818 | 92189
7 | 20:29.15 | 3:50.35 | 92190 | 109474
8 | 24:19.50 | 3:17.03 | 109475 | 124252
9 | 27:36.53 | 4:00.35 | 124253 | 142287
10 | 31:37.13 | 3:39.07 | 142288 | 158719
Track 1
Filename D:\01 - Every Time I Look At You.wav
Pre-gap length 0:00:02.33
Peak level 93.7 %
Extraction speed 0.8 X
Track quality 99.9 %
Test CRC 89541AD7
Copy CRC 89541AD7
Accurately ripped (confidence 2) [AFE7D207] (AR v2)
Copy OK
Track 2
Filename D:\02 - All Over Me.wav
Peak level 82.0 %
Extraction speed 1.1 X
Track quality 100.0 %
Test CRC CCA90D34
Copy CRC CCA90D34
Accurately ripped (confidence 2) [53CC04E4] (AR v2)
Copy OK
Track 3
Filename D:\03 - She Doesn't Know She's Got It.wav
Peak level 96.4 %
Extraction speed 1.2 X
Track quality 100.0 %
Test CRC 7C919793
Copy CRC 7C919793
Accurately ripped (confidence 2) [2B720BD5] (AR v2)
Copy OK
Track 4
Filename D:\04 - Austin.wav
Peak level 95.6 %
Extraction speed 1.3 X
Track quality 100.0 %
Test CRC 85572EE6
Copy CRC 85572EE6
Accurately ripped (confidence 2) [FAE08C5E] (AR v2)
Copy OK
Track 5
Filename D:\05 - Ol' Red.wav
Pre-gap length 0:00:01.05
Peak level 96.6 %
Extraction speed 1.2 X
Track quality 99.9 %
Test CRC 4233FE93
Copy CRC 4233FE93
Accurately ripped (confidence 2) [B09F10A8] (AR v2)
Copy OK
Track 6
Filename D:\06 - I Thought There Was Time.wav
Pre-gap length 0:00:01.50
Peak level 96.4 %
Extraction speed 1.5 X
Track quality 100.0 %
Test CRC 3E520309
Copy CRC 3E520309
Accurately ripped (confidence 2) [BFDF631B] (AR v2)
Copy OK
Track 7
Filename D:\07 - Same Old Song.wav
Peak level 96.6 %
Extraction speed 1.6 X
Track quality 100.0 %
Test CRC 5C855F0C
Copy CRC 5C855F0C
Accurately ripped (confidence 2) [ABD45D0C] (AR v2)
Copy OK
Track 8
Filename D:\08 - That's What I Call Home.wav
Peak level 96.6 %
Extraction speed 1.6 X
Track quality 100.0 %
Test CRC 7AE3A61A
Copy CRC 7AE3A61A
Accurately ripped (confidence 2) [A7FE1A22] (AR v2)
Copy OK
Track 9
Filename D:\09 - Problems At Home.wav
Peak level 96.3 %
Extraction speed 1.7 X
Track quality 100.0 %
Test CRC 972E98C9
Copy CRC 972E98C9
Accurately ripped (confidence 2) [0C064DA8] (AR v2)
Copy OK
Track 10
Filename D:\10 - If I Was Your Man.wav
Peak level 96.6 %
Extraction speed 1.8 X
Track quality 100.0 %
Test CRC 2C38A07A
Copy CRC 2C38A07A
Accurately ripped (confidence 2) [53D92C3D] (AR v2)
Copy OK
All tracks accurately ripped
No errors occurred
End of status report
==== Log checksum 18EF25B5E2B3336B4C6D64EEB645C61EFE584E90AC0C6A3231745BB464CB79B0 ====
Содержание индексной карты (.CUE)
REM GENRE Country
REM DATE 2001
REM DISCID 8608440A
REM COMMENT "ExactAudioCopy v1.0b3"
PERFORMER "Blake Shelton"
TITLE "Blake Shelton"
FILE "01 - Every Time I Look At You.wav" WAVE
TRACK 01 AUDIO
TITLE "Every Time I Look At You"
PERFORMER "Blake Shelton"
PREGAP 00:00:33
INDEX 01 00:00:00
FILE "02 - All Over Me.wav" WAVE
TRACK 02 AUDIO
TITLE "All Over Me"
PERFORMER "Blake Shelton"
INDEX 01 00:00:00
FILE "03 - She Doesn't Know She's Got It.wav" WAVE
TRACK 03 AUDIO
TITLE "She Doesn't Know She's Got It"
PERFORMER "Blake Shelton"
INDEX 01 00:00:00
FILE "04 - Austin.wav" WAVE
TRACK 04 AUDIO
TITLE "Austin"
PERFORMER "Blake Shelton"
INDEX 01 00:00:00
TRACK 05 AUDIO
TITLE "Ol' Red"
PERFORMER "Blake Shelton"
INDEX 00 03:49:20
FILE "05 - Ol' Red.wav" WAVE
INDEX 01 00:00:00
TRACK 06 AUDIO
TITLE "I Thought There Was Time"
PERFORMER "Blake Shelton"
INDEX 00 03:41:05
FILE "06 - I Thought There Was Time.wav" WAVE
INDEX 01 00:00:00
FILE "07 - Same Old Song.wav" WAVE
TRACK 07 AUDIO
TITLE "Same Old Song"
PERFORMER "Blake Shelton"
INDEX 01 00:00:00
FILE "08 - That's What I Call Home.wav" WAVE
TRACK 08 AUDIO
TITLE "That's What I Call Home"
PERFORMER "Blake Shelton"
INDEX 01 00:00:00
FILE "09 - Problems At Home.wav" WAVE
TRACK 09 AUDIO
TITLE "Problems At Home"
PERFORMER "Blake Shelton"
INDEX 01 00:00:00
FILE "10 - If I Was Your Man.wav" WAVE
TRACK 10 AUDIO
TITLE "If I Was Your Man"
PERFORMER "Blake Shelton"
INDEX 01 00:00:00
CD2: The Dreamer (2003)
Продолжительность: 00:36:59
Треклист:
01. Heavy Liftin' (03:26)
02. The Baby (03:54)
03. Asphalt Cowboy (03:39)
04. In My Heaven (03:10)
05. The Dreamer (03:59)
06. My Neck Of The Woods (03:45)
07. Underneath The Same Moon (03:52)
08. Georgia In A Jug (03:06)
09. Playboys Of The Southwestern World (04:28)
10. Someday (03:36)

Лог создания рипа
Exact Audio Copy V1.0 beta 3 from 29. August 2011
EAC extraction logfile from 12. January 2013, 15:23
Blake Shelton / The Dreamer
Used drive : HL-DT-STDVDRAM GH24NS95 Adapter: 1 ID: 0
Read mode : Secure
Utilize accurate stream : Yes
Defeat audio cache : Yes
Make use of C2 pointers : No
Read offset correction : 6
Overread into Lead-In and Lead-Out : No
Fill up missing offset samples with silence : Yes
Delete leading and trailing silent blocks : No
Null samples used in CRC calculations : Yes
Used interface : Installed external ASPI interface
Gap handling : Appended to previous track
Used output format : User Defined Encoder
Selected bitrate : 1024 kBit/s
Quality : High
Add ID3 tag : No
Command line compressor : C:\Program Files (x86)\Exact Audio Copy\Flac\flac.exe
Additional command line options : -8 -V -T "ARTIST=%artist%" -T "TITLE=%title%" -T "ALBUM=
%albumtitle%" -T "DATE=%year%" -T "TRACKNUMBER=%tracknr%" -T "TOTALTRACKS=%numtracks%" -T "GENRE=
%genre%" -T "ALBUMARTIST=%albumartist%" -T "ALBUM ARTIST=%albumartist%" -T "COMMENT=EAC V1.0 beta 3,
Secure Mode, Test & Copy, AccurateRip, FLAC 1.2.1b -8" %source%
TOC of the extracted CD
Track | Start | Length | Start sector | End sector
---------------------------------------------------------
1 | 0:00.00 | 3:26.67 | 0 | 15516
2 | 3:26.67 | 3:54.55 | 15517 | 33121
3 | 7:21.47 | 3:39.30 | 33122 | 49576
4 | 11:01.02 | 3:10.03 | 49577 | 63829
5 | 14:11.05 | 3:59.42 | 63830 | 81796
6 | 18:10.47 | 3:45.40 | 81797 | 98711
7 | 21:56.12 | 3:52.08 | 98712 | 116119
8 | 25:48.20 | 3:06.10 | 116120 | 130079
9 | 28:54.30 | 4:28.27 | 130080 | 150206
10 | 33:22.57 | 3:36.43 | 150207 | 166449
Track 1
Filename D:\01 - Heavy Liftin'.wav
Pre-gap length 0:00:02.00
Peak level 100.0 %
Extraction speed 1.0 X
Track quality 100.0 %
Test CRC B7A00F75
Copy CRC B7A00F75
Accurately ripped (confidence 3) [F362C8CC] (AR v1)
Copy OK
Track 2
Filename D:\02 - The Baby.wav
Peak level 99.9 %
Extraction speed 1.0 X
Track quality 99.9 %
Test CRC BA7B6BD0
Copy CRC BA7B6BD0
Accurately ripped (confidence 3) [BC006D75] (AR v1)
Copy OK
Track 3
Filename D:\03 - Asphalt Cowboy.wav
Peak level 99.9 %
Extraction speed 1.2 X
Track quality 100.0 %
Test CRC FC10D3DC
Copy CRC FC10D3DC
Accurately ripped (confidence 3) [7EC55137] (AR v1)
Copy OK
Track 4
Filename D:\04 - In My Heaven.wav
Peak level 99.9 %
Extraction speed 1.3 X
Track quality 100.0 %
Test CRC 24D49D18
Copy CRC 24D49D18
Accurately ripped (confidence 3) [07FFA289] (AR v1)
Copy OK
Track 5
Filename D:\05 - The Dreamer.wav
Peak level 99.9 %
Extraction speed 1.4 X
Track quality 100.0 %
Test CRC 90696FDA
Copy CRC 90696FDA
Accurately ripped (confidence 3) [05EB343A] (AR v1)
Copy OK
Track 6
Filename D:\06 - My Neck of the Woods.wav
Peak level 99.9 %
Extraction speed 1.5 X
Track quality 100.0 %
Test CRC 1EDC80A3
Copy CRC 1EDC80A3
Accurately ripped (confidence 3) [6AADE8B7] (AR v1)
Copy OK
Track 7
Filename D:\07 - Underneath the Same Moon.wav
Peak level 99.9 %
Extraction speed 1.6 X
Track quality 100.0 %
Test CRC DBB6CC36
Copy CRC DBB6CC36
Accurately ripped (confidence 3) [B87AD9AD] (AR v1)
Copy OK
Track 8
Filename D:\08 - Georgia in a Jug.wav
Peak level 99.9 %
Extraction speed 1.6 X
Track quality 100.0 %
Test CRC 947E26CE
Copy CRC 947E26CE
Accurately ripped (confidence 3) [C8C0C53E] (AR v1)
Copy OK
Track 9
Filename D:\09 - Playboys of the Southwestern World.wav
Peak level 99.9 %
Extraction speed 1.8 X
Track quality 100.0 %
Test CRC DC6A5CE4
Copy CRC DC6A5CE4
Accurately ripped (confidence 3) [8D8F1325] (AR v1)
Copy OK
Track 10
Filename D:\10 - Someday.wav
Peak level 99.9 %
Extraction speed 1.8 X
Track quality 100.0 %
Test CRC FD693EF0
Copy CRC FD693EF0
Accurately ripped (confidence 3) [2E365E86] (AR v1)
Copy OK
All tracks accurately ripped
No errors occurred
End of status report
==== Log checksum 9DBBB6CFDD2B617B0D6ED1B3C54F8003E7A09A11754084F2EB524BA55B949675 ====
Содержание индексной карты (.CUE)
REM GENRE Country
REM DATE 2003
REM DISCID 7108AB0A
REM COMMENT "ExactAudioCopy v1.0b3"
PERFORMER "Blake Shelton"
TITLE "The Dreamer"
FILE "01 - Heavy Liftin'.wav" WAVE
TRACK 01 AUDIO
TITLE "Heavy Liftin'"
PERFORMER "Blake Shelton"
INDEX 01 00:00:00
FILE "02 - The Baby.wav" WAVE
TRACK 02 AUDIO
TITLE "The Baby"
PERFORMER "Blake Shelton"
INDEX 01 00:00:00
FILE "03 - Asphalt Cowboy.wav" WAVE
TRACK 03 AUDIO
TITLE "Asphalt Cowboy"
PERFORMER "Blake Shelton"
INDEX 01 00:00:00
FILE "04 - In My Heaven.wav" WAVE
TRACK 04 AUDIO
TITLE "In My Heaven"
PERFORMER "Blake Shelton"
INDEX 01 00:00:00
FILE "05 - The Dreamer.wav" WAVE
TRACK 05 AUDIO
TITLE "The Dreamer"
PERFORMER "Blake Shelton"
INDEX 01 00:00:00
FILE "06 - My Neck of the Woods.wav" WAVE
TRACK 06 AUDIO
TITLE "My Neck of the Woods"
PERFORMER "Blake Shelton"
INDEX 01 00:00:00
FILE "07 - Underneath the Same Moon.wav" WAVE
TRACK 07 AUDIO
TITLE "Underneath the Same Moon"
PERFORMER "Blake Shelton"
INDEX 01 00:00:00
FILE "08 - Georgia in a Jug.wav" WAVE
TRACK 08 AUDIO
TITLE "Georgia in a Jug"
PERFORMER "Blake Shelton"
INDEX 01 00:00:00
FILE "09 - Playboys of the Southwestern World.wav" WAVE
TRACK 09 AUDIO
TITLE "Playboys of the Southwestern World"
PERFORMER "Blake Shelton"
INDEX 01 00:00:00
FILE "10 - Someday.wav" WAVE
TRACK 10 AUDIO
TITLE "Someday"
PERFORMER "Blake Shelton"
INDEX 01 00:00:00
CD3: Blake Shelton's Barn & Grill (2004)
Продолжительность: 00:36:20
Треклист:
01. Some Beach (03:24)
02. Nobody But Me (02:38)
03. Good Old Boy, Bad Old Boyfriend (03:03)
04. Love Gets In The Way (03:30)
05. Goodbye Time (03:23)
06. Cotton Pickin' Time (03:16)
07. What's On My Mind (03:05)
08. When Somebody Knows You That Well (03:41)
09. On A Good Day (03:34)
10. The Bartender (03:16)
11. I Drink (03:25)

Лог создания рипа
Exact Audio Copy V1.0 beta 3 from 29. August 2011
EAC extraction logfile from 16. January 2013, 9:45
Blake Shelton / Blake Shelton's Barn & Grill
Used drive : HL-DT-STDVDRAM GH24NS95 Adapter: 1 ID: 0
Read mode : Secure
Utilize accurate stream : Yes
Defeat audio cache : Yes
Make use of C2 pointers : No
Read offset correction : 6
Overread into Lead-In and Lead-Out : No
Fill up missing offset samples with silence : Yes
Delete leading and trailing silent blocks : No
Null samples used in CRC calculations : Yes
Used interface : Installed external ASPI interface
Gap handling : Appended to previous track
Used output format : User Defined Encoder
Selected bitrate : 1024 kBit/s
Quality : High
Add ID3 tag : No
Command line compressor : C:\Program Files (x86)\Exact Audio Copy\Flac\flac.exe
Additional command line options : -8 -V -T "ARTIST=%artist%" -T "TITLE=%title%" -T "ALBUM=
%albumtitle%" -T "DATE=%year%" -T "TRACKNUMBER=%tracknr%" -T "TOTALTRACKS=%numtracks%" -T "GENRE=
%genre%" -T "ALBUMARTIST=%albumartist%" -T "ALBUM ARTIST=%albumartist%" -T "COMMENT=EAC V1.0 beta 3,
Secure Mode, Test & Copy, AccurateRip, FLAC 1.2.1b -8" %source%
TOC of the extracted CD
Track | Start | Length | Start sector | End sector
---------------------------------------------------------
1 | 0:00.00 | 3:24.62 | 0 | 15361
2 | 3:24.62 | 2:38.53 | 15362 | 27264
3 | 6:03.40 | 3:03.17 | 27265 | 41006
4 | 9:06.57 | 3:30.30 | 41007 | 56786
5 | 12:37.12 | 3:23.25 | 56787 | 72036
6 | 16:00.37 | 3:16.10 | 72037 | 86746
7 | 19:16.47 | 3:05.63 | 86747 | 100684
8 | 22:22.35 | 3:41.02 | 100685 | 117261
9 | 26:03.37 | 3:34.38 | 117262 | 133349
10 | 29:38.00 | 3:16.47 | 133350 | 148096
11 | 32:54.47 | 3:25.45 | 148097 | 163516
Track 1
Filename D:\01 - Some Beach.wav
Pre-gap length 0:00:02.00
Peak level 91.2 %
Extraction speed 0.9 X
Track quality 99.9 %
Test CRC 4B61D59B
Copy CRC 4B61D59B
Accurately ripped (confidence 4) [E8D14819] (AR v2)
Copy OK
Track 2
Filename D:\02 - Nobody But Me.wav
Peak level 98.8 %
Extraction speed 0.9 X
Track quality 99.9 %
Test CRC C7C299C2
Copy CRC C7C299C2
Accurately ripped (confidence 4) [D20D82D6] (AR v2)
Copy OK
Track 3
Filename D:\03 - Good Old Boy, Bad Old Boyfriend.wav
Peak level 95.5 %
Extraction speed 1.0 X
Track quality 99.9 %
Test CRC 64A2DA39
Copy CRC 64A2DA39
Accurately ripped (confidence 3) [A34AEE84] (AR v2)
Copy OK
Track 4
Filename D:\04 - Love Gets In The Way.wav
Peak level 98.8 %
Extraction speed 1.3 X
Track quality 100.0 %
Test CRC 09AB2C8F
Copy CRC 09AB2C8F
Accurately ripped (confidence 3) [5B0255FD] (AR v2)
Copy OK
Track 5
Filename D:\05 - Goodbye Time.wav
Peak level 98.8 %
Extraction speed 1.4 X
Track quality 100.0 %
Test CRC 29C8273E
Copy CRC 29C8273E
Accurately ripped (confidence 4) [8CFE3455] (AR v2)
Copy OK
Track 6
Filename D:\06 - Cotton Pickin' Time.wav
Pre-gap length 0:00:01.45
Peak level 90.1 %
Extraction speed 1.4 X
Track quality 100.0 %
Test CRC EF83DC7B
Copy CRC EF83DC7B
Accurately ripped (confidence 3) [81757F9D] (AR v2)
Copy OK
Track 7
Filename D:\07 - What's On My Mind.wav
Peak level 90.1 %
Extraction speed 1.5 X
Track quality 100.0 %
Test CRC D2A0F777
Copy CRC D2A0F777
Accurately ripped (confidence 3) [F61F78FB] (AR v2)
Copy OK
Track 8
Filename D:\08 - When Somebody Knows You That Well.wav
Pre-gap length 0:00:01.05
Peak level 92.2 %
Extraction speed 1.6 X
Track quality 100.0 %
Test CRC C679059B
Copy CRC C679059B
Accurately ripped (confidence 4) [CDCC61AC] (AR v2)
Copy OK
Track 9
Filename D:\09 - On A Good Day.wav
Peak level 88.1 %
Extraction speed 1.7 X
Track quality 100.0 %
Test CRC 88BD3BA6
Copy CRC 88BD3BA6
Accurately ripped (confidence 3) [60A70709] (AR v2)
Copy OK
Track 10
Filename D:\10 - The Bartender.wav
Peak level 88.1 %
Extraction speed 1.7 X
Track quality 100.0 %
Test CRC F183C54B
Copy CRC F183C54B
Accurately ripped (confidence 3) [C403CB74] (AR v2)
Copy OK
Track 11
Filename D:\11 - I Drink.wav
Peak level 88.1 %
Extraction speed 1.8 X
Track quality 100.0 %
Test CRC 8329EE5B
Copy CRC 8329EE5B
Accurately ripped (confidence 3) [69CC88C7] (AR v2)
Copy OK
All tracks accurately ripped
No errors occurred
End of status report
==== Log checksum 666841E8B6A1523958DBA53A3F584ADC5FCE7E1396985E309DEEA5A48484A9FE ====
Содержание индексной карты (.CUE)
REM GENRE Country
REM DATE 2004
REM DISCID A208840B
REM COMMENT "ExactAudioCopy v1.0b3"
PERFORMER "Blake Shelton"
TITLE "Blake Shelton's Barn & Grill"
FILE "01 - Some Beach.wav" WAVE
TRACK 01 AUDIO
TITLE "Some Beach"
PERFORMER "Blake Shelton"
INDEX 01 00:00:00
FILE "02 - Nobody But Me.wav" WAVE
TRACK 02 AUDIO
TITLE "Nobody But Me"
PERFORMER "Blake Shelton"
INDEX 01 00:00:00
FILE "03 - Good Old Boy, Bad Old Boyfriend.wav" WAVE
TRACK 03 AUDIO
TITLE "Good Old Boy, Bad Old Boyfriend"
PERFORMER "Blake Shelton"
INDEX 01 00:00:00
FILE "04 - Love Gets In The Way.wav" WAVE
TRACK 04 AUDIO
TITLE "Love Gets In The Way"
PERFORMER "Blake Shelton"
INDEX 01 00:00:00
FILE "05 - Goodbye Time.wav" WAVE
TRACK 05 AUDIO
TITLE "Goodbye Time"
PERFORMER "Blake Shelton"
INDEX 01 00:00:00
TRACK 06 AUDIO
TITLE "Cotton Pickin' Time"
PERFORMER "Blake Shelton"
INDEX 00 03:21:55
FILE "06 - Cotton Pickin' Time.wav" WAVE
INDEX 01 00:00:00
FILE "07 - What's On My Mind.wav" WAVE
TRACK 07 AUDIO
TITLE "What's On My Mind"
PERFORMER "Blake Shelton"
INDEX 01 00:00:00
TRACK 08 AUDIO
TITLE "When Somebody Knows You That Well"
PERFORMER "Blake Shelton"
INDEX 00 03:04:58
FILE "08 - When Somebody Knows You That Well.wav" WAVE
INDEX 01 00:00:00
FILE "09 - On A Good Day.wav" WAVE
TRACK 09 AUDIO
TITLE "On A Good Day"
PERFORMER "Blake Shelton"
INDEX 01 00:00:00
FILE "10 - The Bartender.wav" WAVE
TRACK 10 AUDIO
TITLE "The Bartender"
PERFORMER "Blake Shelton"
INDEX 01 00:00:00
FILE "11 - I Drink.wav" WAVE
TRACK 11 AUDIO
TITLE "I Drink"
PERFORMER "Blake Shelton"
INDEX 01 00:00:00
CD4: Pure BS (2007)
Продолжительность: 00:40:38
Треклист:
01. This Can't Be Good (03:32)
02. Don't Make Me (04:07)
03. The More I Drink (03:37)
04. I Don't Care (03:52)
05. She Don't Love Me (03:03)
06. Back There Again (04:17)
07. It Ain't Easy Bein' Me (03:19)
08. What I Wouldn't Give (04:22)
09. I Have Been Lonely (03:15)
10. She Can't Get That (03:45)
11. The Last Country Song (03:24)

Лог создания рипа
Exact Audio Copy V1.0 beta 3 from 29. August 2011
EAC extraction logfile from 16. January 2013, 11:35
Blake Shelton / Pure BS
Used drive : HL-DT-STDVDRAM GH24NS95 Adapter: 1 ID: 0
Read mode : Secure
Utilize accurate stream : Yes
Defeat audio cache : Yes
Make use of C2 pointers : No
Read offset correction : 6
Overread into Lead-In and Lead-Out : No
Fill up missing offset samples with silence : Yes
Delete leading and trailing silent blocks : No
Null samples used in CRC calculations : Yes
Used interface : Installed external ASPI interface
Gap handling : Appended to previous track
Used output format : User Defined Encoder
Selected bitrate : 1024 kBit/s
Quality : High
Add ID3 tag : No
Command line compressor : C:\Program Files (x86)\Exact Audio Copy\Flac\flac.exe
Additional command line options : -8 -V -T "ARTIST=%artist%" -T "TITLE=%title%" -T "ALBUM=
%albumtitle%" -T "DATE=%year%" -T "TRACKNUMBER=%tracknr%" -T "TOTALTRACKS=%numtracks%" -T "GENRE=
%genre%" -T "ALBUMARTIST=%albumartist%" -T "ALBUM ARTIST=%albumartist%" -T "COMMENT=EAC V1.0 beta 3,
Secure Mode, Test & Copy, AccurateRip, FLAC 1.2.1b -8" %source%
TOC of the extracted CD
Track | Start | Length | Start sector | End sector
---------------------------------------------------------
1 | 0:00.00 | 3:32.62 | 0 | 15961
2 | 3:32.62 | 4:07.07 | 15962 | 34493
3 | 7:39.69 | 3:37.14 | 34494 | 50782
4 | 11:17.08 | 3:52.23 | 50783 | 68205
5 | 15:09.31 | 3:03.74 | 68206 | 82004
6 | 18:13.30 | 4:17.60 | 82005 | 101339
7 | 22:31.15 | 3:19.52 | 101340 | 116316
8 | 25:50.67 | 4:22.25 | 116317 | 135991
9 | 30:13.17 | 3:15.26 | 135992 | 150642
10 | 33:28.43 | 3:45.55 | 150643 | 167572
11 | 37:14.23 | 3:23.70 | 167573 | 182867
Track 1
Filename D:\01 - This Can't Be Good.wav
Pre-gap length 0:00:02.00
Peak level 98.7 %
Extraction speed 0.9 X
Track quality 99.9 %
Test CRC 8E3FA76C
Copy CRC 8E3FA76C
Accurately ripped (confidence 27) [A14A9F53] (AR v1)
Copy OK
Track 2
Filename D:\02 - Don't Make Me.wav
Pre-gap length 0:00:01.08
Peak level 99.9 %
Extraction speed 1.2 X
Track quality 100.0 %
Test CRC E1015B05
Copy CRC E1015B05
Accurately ripped (confidence 28) [EC761109] (AR v1)
Copy OK
Track 3
Filename D:\03 - The More I Drink.wav
Pre-gap length 0:00:00.40
Peak level 88.0 %
Extraction speed 1.3 X
Track quality 100.0 %
Test CRC 09011E51
Copy CRC 09011E51
Accurately ripped (confidence 28) [9E16EF95] (AR v1)
Copy OK
Track 4
Filename D:\04 - I Don't Care.wav
Peak level 99.9 %
Extraction speed 1.4 X
Track quality 100.0 %
Test CRC 0B74D392
Copy CRC 0B74D392
Accurately ripped (confidence 28) [4F818412] (AR v1)
Copy OK
Track 5
Filename D:\05 - She Don't Love Me.wav
Pre-gap length 0:00:00.74
Peak level 99.9 %
Extraction speed 1.4 X
Track quality 100.0 %
Test CRC 8ED87E8F
Copy CRC 8ED87E8F
Accurately ripped (confidence 27) [A248836C] (AR v1)
Copy OK
Track 6
Filename D:\06 - Back There Again.wav
Pre-gap length 0:00:00.16
Peak level 99.9 %
Extraction speed 1.6 X
Track quality 100.0 %
Test CRC B1293A0B
Copy CRC B1293A0B
Accurately ripped (confidence 26) [A9A5888E] (AR v1)
Copy OK
Track 7
Filename D:\07 - It Ain't Easy Bein' Me.wav
Pre-gap length 0:00:00.73
Peak level 94.2 %
Extraction speed 1.5 X
Track quality 100.0 %
Test CRC A8362EED
Copy CRC A8362EED
Accurately ripped (confidence 26) [BC75BC2E] (AR v1)
Copy OK
Track 8
Filename D:\08 - What I Wouldn't Give.wav
Pre-gap length 0:00:00.31
Peak level 99.9 %
Extraction speed 1.7 X
Track quality 100.0 %
Test CRC A1CCD467
Copy CRC A1CCD467
Accurately ripped (confidence 26) [7A91A7B7] (AR v1)
Copy OK
Track 9
Filename D:\09 - I Have Been Lonely.wav
Pre-gap length 0:00:00.35
Peak level 99.8 %
Extraction speed 1.7 X
Track quality 100.0 %
Test CRC 0B39B1DF
Copy CRC 0B39B1DF
Accurately ripped (confidence 28) [788E341D] (AR v1)
Copy OK
Track 10
Filename D:\10 - She Can't Get That.wav
Pre-gap length 0:00:00.65
Peak level 99.9 %
Extraction speed 1.6 X
Track quality 99.9 %
Test CRC AC97FF50
Copy CRC AC97FF50
Accurately ripped (confidence 27) [0B86174F] (AR v1)
Copy OK
Track 11
Filename D:\11 - The Last Country Song.wav
Pre-gap length 0:00:00.28
Peak level 97.6 %
Extraction speed 1.8 X
Track quality 100.0 %
Test CRC D9792792
Copy CRC D9792792
Accurately ripped (confidence 27) [7154C800] (AR v1)
Copy OK
All tracks accurately ripped
No errors occurred
End of status report
==== Log checksum F4AAF9D66CA1CE7CE6F20A831021B7E27A1F9CAFE4A4915F30A404DD1FA21C39 ====
Содержание индексной карты (.CUE)
REM GENRE Country
REM DATE 2007
REM DISCID 7C09860B
REM COMMENT "ExactAudioCopy v1.0b3"
PERFORMER "Blake Shelton"
TITLE "Pure BS"
FILE "01 - This Can't Be Good.wav" WAVE
TRACK 01 AUDIO
TITLE "This Can't Be Good"
PERFORMER "Blake Shelton"
INDEX 01 00:00:00
TRACK 02 AUDIO
TITLE "Don't Make Me"
PERFORMER "Blake Shelton"
INDEX 00 03:31:54
FILE "02 - Don't Make Me.wav" WAVE
INDEX 01 00:00:00
TRACK 03 AUDIO
TITLE "The More I Drink"
PERFORMER "Blake Shelton"
INDEX 00 04:06:42
FILE "03 - The More I Drink.wav" WAVE
INDEX 01 00:00:00
FILE "04 - I Don't Care.wav" WAVE
TRACK 04 AUDIO
TITLE "I Don't Care"
PERFORMER "Blake Shelton"
INDEX 01 00:00:00
TRACK 05 AUDIO
TITLE "She Don't Love Me"
PERFORMER "Blake Shelton"
INDEX 00 03:51:24
FILE "05 - She Don't Love Me.wav" WAVE
INDEX 01 00:00:00
TRACK 06 AUDIO
TITLE "Back There Again"
PERFORMER "Blake Shelton"
INDEX 00 03:03:58
FILE "06 - Back There Again.wav" WAVE
INDEX 01 00:00:00
TRACK 07 AUDIO
TITLE "It Ain't Easy Bein' Me"
PERFORMER "Blake Shelton"
INDEX 00 04:16:62
FILE "07 - It Ain't Easy Bein' Me.wav" WAVE
INDEX 01 00:00:00
TRACK 08 AUDIO
TITLE "What I Wouldn't Give"
PERFORMER "Blake Shelton"
INDEX 00 03:19:21
FILE "08 - What I Wouldn't Give.wav" WAVE
INDEX 01 00:00:00
TRACK 09 AUDIO
TITLE "I Have Been Lonely"
PERFORMER "Blake Shelton"
INDEX 00 04:21:65
FILE "09 - I Have Been Lonely.wav" WAVE
INDEX 01 00:00:00
TRACK 10 AUDIO
TITLE "She Can't Get That"
PERFORMER "Blake Shelton"
INDEX 00 03:14:36
FILE "10 - She Can't Get That.wav" WAVE
INDEX 01 00:00:00
TRACK 11 AUDIO
TITLE "The Last Country Song"
PERFORMER "Blake Shelton"
INDEX 00 03:45:27
FILE "11 - The Last Country Song.wav" WAVE
INDEX 01 00:00:00
CD5: Startin' Fires (2008)
Продолжительность: 00:43:48
Треклист:
01. Green (03:00)
02. Good At Startin' Fires (03:02)
03. She Wouldn't Be Gone (03:36)
04. I'll Just Hold On (04:00)
05. 100 Miles (03:29)
06. Never Lovin' You (04:39)
07. Country Strong (03:14)
08. Home Sweet Home (03:55)
09. This Is Gonna Take All Night (03:17)
10. Here I Am (03:52)
11. I Don't Care (03:53)
12. Bare Skin Rug (feat. Miranda Lambert) (03:47)

Лог создания рипа
Exact Audio Copy V1.0 beta 3 from 29. August 2011
EAC extraction logfile from 16. January 2013, 12:43
Blake Shelton / Startin' Fires
Used drive : HL-DT-STDVDRAM GH24NS95 Adapter: 1 ID: 0
Read mode : Secure
Utilize accurate stream : Yes
Defeat audio cache : Yes
Make use of C2 pointers : No
Read offset correction : 6
Overread into Lead-In and Lead-Out : No
Fill up missing offset samples with silence : Yes
Delete leading and trailing silent blocks : No
Null samples used in CRC calculations : Yes
Used interface : Installed external ASPI interface
Gap handling : Appended to previous track
Used output format : User Defined Encoder
Selected bitrate : 1024 kBit/s
Quality : High
Add ID3 tag : No
Command line compressor : C:\Program Files (x86)\Exact Audio Copy\Flac\flac.exe
Additional command line options : -8 -V -T "ARTIST=%artist%" -T "TITLE=%title%" -T "ALBUM=
%albumtitle%" -T "DATE=%year%" -T "TRACKNUMBER=%tracknr%" -T "TOTALTRACKS=%numtracks%" -T "GENRE=
%genre%" -T "ALBUMARTIST=%albumartist%" -T "ALBUM ARTIST=%albumartist%" -T "COMMENT=EAC V1.0 beta 3,
Secure Mode, Test & Copy, AccurateRip, FLAC 1.2.1b -8" %source%
TOC of the extracted CD
Track | Start | Length | Start sector | End sector
---------------------------------------------------------
1 | 0:00.00 | 3:00.59 | 0 | 13558
2 | 3:00.59 | 3:02.03 | 13559 | 27211
3 | 6:02.62 | 3:36.26 | 27212 | 43437
4 | 9:39.13 | 4:00.32 | 43438 | 61469
5 | 13:39.45 | 3:29.63 | 61470 | 77207
6 | 17:09.33 | 4:39.13 | 77208 | 98145
7 | 21:48.46 | 3:14.09 | 98146 | 112704
8 | 25:02.55 | 3:55.06 | 112705 | 130335
9 | 28:57.61 | 3:17.72 | 130336 | 145182
10 | 32:15.58 | 3:52.05 | 145183 | 162587
11 | 36:07.63 | 3:53.02 | 162588 | 180064
12 | 40:00.65 | 3:47.17 | 180065 | 197106
Track 1
Filename D:\01 - Green.wav
Pre-gap length 0:00:02.00
Peak level 96.2 %
Extraction speed 1.0 X
Track quality 100.0 %
Test CRC 8AAB76BB
Copy CRC 8AAB76BB
Accurately ripped (confidence 24) [98725C7E] (AR v1)
Copy OK
Track 2
Filename D:\02 - Good at Startin' Fires.wav
Pre-gap length 0:00:00.42
Peak level 91.7 %
Extraction speed 1.1 X
Track quality 100.0 %
Test CRC 296EEABC
Copy CRC 296EEABC
Accurately ripped (confidence 25) [2394F2EA] (AR v1)
Copy OK
Track 3
Filename D:\03 - She Wouldn't Be Gone.wav
Pre-gap length 0:00:00.58
Peak level 97.5 %
Extraction speed 1.2 X
Track quality 100.0 %
Test CRC CB4CAE3E
Copy CRC CB4CAE3E
Accurately ripped (confidence 25) [D0DC7FFF] (AR v1)
Copy OK
Track 4
Filename D:\04 - I'll Just Hold On.wav
Pre-gap length 0:00:00.55
Peak level 96.3 %
Extraction speed 1.3 X
Track quality 100.0 %
Test CRC E729C571
Copy CRC E729C571
Accurately ripped (confidence 24) [5B9F6EEE] (AR v1)
Copy OK
Track 5
Filename D:\05 - 100 Miles.wav
Pre-gap length 0:00:01.17
Peak level 99.7 %
Extraction speed 1.2 X
Track quality 99.9 %
Test CRC AB31110C
Copy CRC AB31110C
Accurately ripped (confidence 24) [8677B74A] (AR v1)
Copy OK
Track 6
Filename D:\06 - Never Lovin' You.wav
Pre-gap length 0:00:00.30
Peak level 99.7 %
Extraction speed 1.5 X
Track quality 100.0 %
Test CRC F4B213FD
Copy CRC F4B213FD
Accurately ripped (confidence 25) [2CA6019C] (AR v1)
Copy OK
Track 7
Filename D:\07 - Country Strong.wav
Pre-gap length 0:00:00.43
Peak level 99.7 %
Extraction speed 1.5 X
Track quality 100.0 %
Test CRC 05D1C8FB
Copy CRC 05D1C8FB
Accurately ripped (confidence 25) [6B9EDA57] (AR v1)
Copy OK
Track 8
Filename D:\08 - Home Sweet Home.wav
Pre-gap length 0:00:00.70
Peak level 99.3 %
Extraction speed 1.7 X
Track quality 100.0 %
Test CRC 423F7012
Copy CRC 423F7012
Accurately ripped (confidence 25) [27A0476E] (AR v1)
Copy OK
Track 9
Filename D:\09 - This Is Gonna Take All Night.wav
Pre-gap length 0:00:01.32
Peak level 83.1 %
Extraction speed 1.7 X
Track quality 100.0 %
Test CRC 89B3ACD2
Copy CRC 89B3ACD2
Accurately ripped (confidence 25) [0B08A156] (AR v1)
Copy OK
Track 10
Filename D:\10 - Here I Am.wav
Pre-gap length 0:00:00.52
Peak level 99.7 %
Extraction speed 1.6 X
Track quality 99.9 %
Test CRC 325EF6E2
Copy CRC 325EF6E2
Accurately ripped (confidence 25) [ED02523B] (AR v1)
Copy OK
Track 11
Filename D:\11 - I Don't Care.wav
Pre-gap length 0:00:01.22
Peak level 90.0 %
Extraction speed 1.6 X
Track quality 99.9 %
Test CRC 17B38673
Copy CRC 17B38673
Accurately ripped (confidence 24) [351DFEF0] (AR v1)
Copy OK
Track 12
Filename D:\12 - Bare Skin Rug (Featuring Miranda Lambert).wav
Pre-gap length 0:00:01.14
Peak level 79.4 %
Extraction speed 1.9 X
Track quality 100.0 %
Test CRC B53CE663
Copy CRC B53CE663
Accurately ripped (confidence 25) [7615E086] (AR v1)
Copy OK
All tracks accurately ripped
No errors occurred
End of status report
==== Log checksum 88B81342F2D69FAA34990C74128498E9246035639685C18D690CCE530A2B7680 ====
Содержание индексной карты (.CUE)
REM GENRE Country
REM DATE 2008
REM DISCID 890A440C
REM COMMENT "ExactAudioCopy v1.0b3"
PERFORMER "Blake Shelton"
TITLE "Startin' Fires"
FILE "01 - Green.wav" WAVE
TRACK 01 AUDIO
TITLE "Green"
PERFORMER "Blake Shelton"
INDEX 01 00:00:00
TRACK 02 AUDIO
TITLE "Good at Startin' Fires"
PERFORMER "Blake Shelton"
INDEX 00 03:00:17
FILE "02 - Good at Startin' Fires.wav" WAVE
INDEX 01 00:00:00
TRACK 03 AUDIO
TITLE "She Wouldn't Be Gone"
PERFORMER "Blake Shelton"
INDEX 00 03:01:20
FILE "03 - She Wouldn't Be Gone.wav" WAVE
INDEX 01 00:00:00
TRACK 04 AUDIO
TITLE "I'll Just Hold On"
PERFORMER "Blake Shelton"
INDEX 00 03:35:46
FILE "04 - I'll Just Hold On.wav" WAVE
INDEX 01 00:00:00
TRACK 05 AUDIO
TITLE "100 Miles"
PERFORMER "Blake Shelton"
INDEX 00 03:59:15
FILE "05 - 100 Miles.wav" WAVE
INDEX 01 00:00:00
TRACK 06 AUDIO
TITLE "Never Lovin' You"
PERFORMER "Blake Shelton"
INDEX 00 03:29:33
FILE "06 - Never Lovin' You.wav" WAVE
INDEX 01 00:00:00
TRACK 07 AUDIO
TITLE "Country Strong"
PERFORMER "Blake Shelton"
INDEX 00 04:38:45
FILE "07 - Country Strong.wav" WAVE
INDEX 01 00:00:00
TRACK 08 AUDIO
TITLE "Home Sweet Home"
PERFORMER "Blake Shelton"
INDEX 00 03:13:14
FILE "08 - Home Sweet Home.wav" WAVE
INDEX 01 00:00:00
TRACK 09 AUDIO
TITLE "This Is Gonna Take All Night"
PERFORMER "Blake Shelton"
INDEX 00 03:53:49
FILE "09 - This Is Gonna Take All Night.wav" WAVE
INDEX 01 00:00:00
TRACK 10 AUDIO
TITLE "Here I Am"
PERFORMER "Blake Shelton"
INDEX 00 03:17:20
FILE "10 - Here I Am.wav" WAVE
INDEX 01 00:00:00
TRACK 11 AUDIO
TITLE "I Don't Care"
PERFORMER "Blake Shelton"
INDEX 00 03:50:58
FILE "11 - I Don't Care.wav" WAVE
INDEX 01 00:00:00
TRACK 12 AUDIO
TITLE "Bare Skin Rug (Featuring Miranda Lambert)"
PERFORMER "Blake Shelton"
INDEX 00 03:51:63
FILE "12 - Bare Skin Rug.wav" WAVE
INDEX 01 00:00:00
Доп. информация: 5 первых студийных альбомов.
Об альбоме (сборнике) Об исполнителе (группе) Дискография

Studio Albums
2001. Blake Shelton
2003. The Dreamer
2004. Blake Shelton's Barn & Grill
2007. Pure BS
2008. Startin' Fires
2011. Red River Blue
2012. Cheers, It's Christmas
2013. Based on a True Story...
2014. Bringing Back the Sunshine
2016. If I'm Honest
Compilations
2009. Blake Shelton - The Essentials
2010. Loaded: The Best of Blake Shelton
2012. Original Album Series
2015. Reloaded: 20 #1 Hits
Extended plays
2008. Blake Shelton: Collector's Edition
2010. Hillbilly Bone
2010. All About Tonight

Особая благодарность oparin1954 за составление релиза
[Профиль] [ЛС]
Показать сообщения:    
Ответить на тему

Текущее время: Сегодня 06:33

Часовой пояс: GMT + 3



Вы не можете начинать темы
Вы не можете отвечать на сообщения
Вы не можете редактировать свои сообщения
Вы не можете удалять свои сообщения
Вы не можете голосовать в опросах
Вы не можете прикреплять файлы к сообщениям
Вы не можете скачивать файлы