(Classical) Сергей Прокофьев - Фортепианные концерты №№ 1, 3, 4 - Olli Mustonen, Finnish Radio Symphony Orchestra, Hannu Lintu - 2016, FLAC (image+.cue) lossless

Ответить на тему
 
Автор Сообщение

alex.gord ®

Стаж: 4 года 8 месяцев

Сообщений: 1

Пост 31-Дек-2016 23:10

[Цитировать]

Сергей Прокофьев - Фортепианные концерты №№ 1, 3, 4 - Olli Mustonen, Finnish Radio Symphony Orchestra, Hannu Lintu
Жанр: Classical
Страна-производитель диска: Finland
Год издания диска: 2016
Издатель (лейбл): Ondine
Номер по каталогу: ODE 1244-2
Дата записи: 2015
Аудиокодек: FLAC
Тип рипа: image+.cue
Битрейт аудио: lossless
Продолжительность: 69:36
Источник: собственный рип
Наличие сканов в содержимом раздачи: да
Треклист:
Сергей Прокофьев (1891–1953)
[1]-[3] Piano Concerto No. 3 in C major, Op. 26
[4]-[6] Piano Concerto No. 1 in D flat major, Op. 10
[7]-[10] Piano Concerto No. 4 (for the left hand) in B flat major, Op. 53
Исполнители:
Olli Mustonen piano
Finnish Radio Symphony Orchestra
Hannu Lintu
conductor
Лог создания рипа
Exact Audio Copy V1.1 from 23. June 2015
EAC extraction logfile from 29. December 2016, 20:55
Olli Mustonen, Finnish RSO, Hannu Lintu / Prokofiev - Piano Concertos Nos. 1, 3 & 4
Used drive : HL-DT-STDVDRAM GU70N Adapter: 1 ID: 0
Read mode : Secure
Utilize accurate stream : Yes
Defeat audio cache : Yes
Make use of C2 pointers : No
Read offset correction : 48
Overread into Lead-In and Lead-Out : No
Fill up missing offset samples with silence : Yes
Delete leading and trailing silent blocks : No
Null samples used in CRC calculations : Yes
Used interface : Native Win32 interface for Win NT & 2000
Used output format : User Defined Encoder
Selected bitrate : 128 kBit/s
Quality : High
Add ID3 tag : No
Command line compressor : C:\Program Files (x86)\Exact Audio Copy\Flac\flac.exe
Additional command line options : -V -8 -T "Date=%year%" -T "Genre=%genre%" %source%
TOC of the extracted CD
Track | Start | Length | Start sector | End sector
---------------------------------------------------------
1 | 0:00.00 | 9:50.06 | 0 | 44255
2 | 9:50.06 | 8:59.12 | 44256 | 84692
3 | 18:49.18 | 10:15.63 | 84693 | 130880
4 | 29:05.06 | 7:39.42 | 130881 | 165347
5 | 36:44.48 | 4:13.36 | 165348 | 184358
6 | 40:58.09 | 4:50.40 | 184359 | 206148
7 | 45:48.49 | 4:55.09 | 206149 | 228282
8 | 50:43.58 | 8:53.54 | 228283 | 268311
9 | 59:37.37 | 8:10.51 | 268312 | 305112
10 | 67:48.13 | 1:47.21 | 305113 | 313158
Range status and errors
Selected range
Filename C:\temp\Prokofiev - Piano Concertos Nos. 1, 3 & 4 - Mustonen, FRSO, Lintu\Prokofiev - Piano Concertos Nos. 1, 3 & 4.wav
Peak level 94.5 %
Extraction speed 2.2 X
Range quality 100.0 %
Test CRC BBCFD906
Copy CRC BBCFD906
Copy OK
No errors occurred
AccurateRip summary
Track 1 not present in database
Track 2 not present in database
Track 3 not present in database
Track 4 not present in database
Track 5 not present in database
Track 6 not present in database
Track 7 not present in database
Track 8 not present in database
Track 9 not present in database
Track 10 not present in database
None of the tracks are present in the AccurateRip database
End of status report
==== Log checksum 8D92B277F9325FC4CD28C1E60378715DD6A7AA7EC95F46ADD734C47C9700A9CB ====

Особая благодарность A-Z за составление релиза
[Профиль] [ЛС]
Показать сообщения:    
Ответить на тему

Текущее время: Сегодня 05:56

Часовой пояс: GMT + 3



Вы не можете начинать темы
Вы не можете отвечать на сообщения
Вы не можете редактировать свои сообщения
Вы не можете удалять свои сообщения
Вы не можете голосовать в опросах
Вы не можете прикреплять файлы к сообщениям
Вы не можете скачивать файлы