(Classical) Charles Louis Hanssens-The Playful Lightness of the Clarinet(Eddy Vanoosthuyse, Slovak Sinfonietta, Herman Engels )- 2016, FLAC (tracks) lossless

Ответить на тему
 
Автор Сообщение

Se1967 ®

Стаж: 5 лет 2 месяца

Сообщений: 3

Пост 29-Дек-2016 22:50

[Цитировать]

Charles Louis Hanssens-The Playful Lightness of the Clarinet(Eddy Vanoosthuyse, Slovak Sinfonietta, Herman Engels )
Жанр: Classical
Страна-производитель диска: Belgium
Год издания диска: 2016
Издатель (лейбл): Phaedra
Номер по каталогу: ph92094
Дата записи: 2016
Аудиокодек: FLAC
Тип рипа: tracks
Битрейт аудио: lossless
Продолжительность: 01:04:58
Источник: собственный рип
Наличие сканов в содержимом раздачи: нет
Треклист:
Charles Louis Hanssens- The playful lightness of the clarinet
Solo de clarinette avec orchestre
1 Allegro 01:24
2 Dolce espressivo 02:25
3 Allegro 04:36
Fantasie pour violon et clarinette et grand orchestre
4 Allegro moderato 06:19
5 Adagio 03:18
6 Allegro con fuoco 01:21
7 Allegretto 04:53
Concertino nr. 1 pour clarinette et grand orchestre
8 Allegro agitato 06:06
9 Adagio ma non troppo lento 03:46
10 Allegretto 05:06
Morceau de concert pour hautbois et clarinette et orchestre
11 Allegro agitato 03:17
12 Poco adagio 05:02
13 Allegro - Allegretto 04:06
Concertino nr. 2 pour clarinette et grand orchestre
14 Allegro agitato 04:04
15 Andantino 04:06
16 Allegretto 05:01
Исполнители:
Eddy Vanoosthuyse (clarinet), Eric Speller (oboe), Milan Pala (violin)
Slovak Sinfonietta, Zilina, Herman Engels conductor
Лог создания рипа
Drive: Slimtype DVD A DS8A5SH
XCFA 4.3.6, компрессия 5
LogExpertMode:
[Track: 1]
Ripping expert mode PASS 1/2
Ripping expert mode PASS 2/2
Control the content of the extracted files
[Track: 2]
Ripping expert mode PASS 1/2
Ripping expert mode PASS 2/2
Control the content of the extracted files
[Track: 3]
Ripping expert mode PASS 1/2
Ripping expert mode PASS 2/2
Control the content of the extracted files
[Track: 4]
Ripping expert mode PASS 1/2
Ripping expert mode PASS 2/2
Control the content of the extracted files
[Track: 5]
Ripping expert mode PASS 1/2
Ripping expert mode PASS 2/2
Control the content of the extracted files
[Track: 6]
Ripping expert mode PASS 1/2
Ripping expert mode PASS 2/2
Control the content of the extracted files
[Track: 7]
Ripping expert mode PASS 1/2
Ripping expert mode PASS 2/2
Control the content of the extracted files
[Track: 8]
Ripping expert mode PASS 1/2
Ripping expert mode PASS 2/2
Control the content of the extracted files
[Track: 9]
Ripping expert mode PASS 1/2
Ripping expert mode PASS 2/2
Control the content of the extracted files
[Track: 10]
Ripping expert mode PASS 1/2
Ripping expert mode PASS 2/2
Control the content of the extracted files
[Track: 11]
Ripping expert mode PASS 1/2
Ripping expert mode PASS 2/2
Control the content of the extracted files
[Track: 12]
Ripping expert mode PASS 1/2
Ripping expert mode PASS 2/2
Control the content of the extracted files
[Track: 13]
Ripping expert mode PASS 1/2
Ripping expert mode PASS 2/2
Control the content of the extracted files
[Track: 14]
Ripping expert mode PASS 1/2
Ripping expert mode PASS 2/2
Control the content of the extracted files
[Track: 15]
Ripping expert mode PASS 1/2
Ripping expert mode PASS 2/2
Control the content of the extracted files
[Track: 16]
Ripping expert mode PASS 1/2
Ripping expert mode PASS 2/2
Control the content of the extracted files
Лог проверки качества
Lossless Audio Checker 2.0.4 logfile from Thu, 29 Dec 2016 15:49:54 GMT
File: /run/user/1000/gvfs/cdda:host=sr0/Track 1.wav
Result: Upsampled
File: /run/user/1000/gvfs/cdda:host=sr0/Track 2.wav
Result: Upsampled
File: /run/user/1000/gvfs/cdda:host=sr0/Track 3.wav
Result: Clean
File: /run/user/1000/gvfs/cdda:host=sr0/Track 4.wav
Result: Clean
File: /run/user/1000/gvfs/cdda:host=sr0/Track 5.wav
Result: Clean
File: /run/user/1000/gvfs/cdda:host=sr0/Track 6.wav
Result: Clean
File: /run/user/1000/gvfs/cdda:host=sr0/Track 7.wav
Result: Clean
File: /run/user/1000/gvfs/cdda:host=sr0/Track 8.wav
Result: Upsampled
File: /run/user/1000/gvfs/cdda:host=sr0/Track 9.wav
Result: Upsampled
File: /run/user/1000/gvfs/cdda:host=sr0/Track 10.wav
Result: Upsampled
File: /run/user/1000/gvfs/cdda:host=sr0/Track 11.wav
Result: Upsampled
File: /run/user/1000/gvfs/cdda:host=sr0/Track 12.wav
Result: Upsampled
File: /run/user/1000/gvfs/cdda:host=sr0/Track 13.wav
Result: Clean
File: /run/user/1000/gvfs/cdda:host=sr0/Track 14.wav
Result: Clean
File: /run/user/1000/gvfs/cdda:host=sr0/Track 15.wav
Result: Upsampled
File: /run/user/1000/gvfs/cdda:host=sr0/Track 16.wav
Result: Clean
Checked: 16 | Clean: 8 | Transcoded: 0 | Upscaled: 0 | Upsampled: 8 | Error: 0
Скриншот спектра частот
Spek 0.8.2/ Acoustic Spectrum Analyser log
Динамический диапазон
dr14 log
----------------------------------------------------------------------------------------------
Analyzed: Album / Artist: Artist
----------------------------------------------------------------------------------------------
DR Peak RMS Duration Title [codec]
----------------------------------------------------------------------------------------------
DR13 -2.40 dB -19.90 dB 1:24 01 - Track_01 [flac]
DR11 -0.10 dB -16.31 dB 5:05 10 - Track_10 [flac]
DR12 -0.10 dB -17.16 dB 3:16 11 - Track_11 [flac]
DR12 -1.41 dB -19.15 dB 5:01 12 - Track_12 [flac]
DR11 -0.10 dB -15.96 dB 4:05 13 - Track_13 [flac]
DR10 -0.10 dB -14.87 dB 4:04 14 - Track_14 [flac]
DR12 -1.60 dB -20.76 dB 4:05 15 - Track_15 [flac]
DR11 -0.10 dB -16.03 dB 5:03 16 - Track_16 [flac]
DR12 -0.11 dB -18.05 dB 2:25 02 - Track_02 [flac]
DR10 -0.10 dB -15.99 dB 4:36 03 - Track_03 [flac]
DR11 -0.10 dB -15.95 dB 6:19 04 - Track_04 [flac]
DR15 -0.10 dB -20.92 dB 3:18 05 - Track_05 [flac]
DR9 -0.10 dB -14.48 dB 1:20 06 - Track_06 [flac]
DR10 -0.10 dB -15.13 dB 4:53 07 - Track_07 [flac]
DR12 -0.10 dB -17.30 dB 6:05 08 - Track_08 [flac]
DR12 -0.10 dB -18.36 dB 3:46 09 - Track_09 [flac]
----------------------------------------------------------------------------------------------
Number of files: 16
Official DR value: DR11
Sampling rate: 44100 Hz
Average bitrate: 704kbs
Bits per sample: 16 bit
Dr14 T.meter 1.0.16

Особая благодарность Ul-r за составление релиза
[Профиль] [ЛС]
Показать сообщения:    
Ответить на тему

Текущее время: Сегодня 10:19

Часовой пояс: GMT + 3



Вы не можете начинать темы
Вы не можете отвечать на сообщения
Вы не можете редактировать свои сообщения
Вы не можете удалять свои сообщения
Вы не можете голосовать в опросах
Вы не можете прикреплять файлы к сообщениям
Вы не можете скачивать файлы