(Country,Folk,Easy Listening) [CD] Frankie Laine - I Believe - 1997, FLAC (image+.cue), lossless

Ответить на тему
 
Автор Сообщение

UnnameD ®

Стаж: 6 лет

Сообщений: 4

Пост 26-Дек-2016 10:25

[Цитировать]

Frankie Laine / I Believe
Жанр: Country,Folk,Easy Listening
Носитель: CD
Страна-производитель диска (релиза): UK
Год издания: 1997
Издатель (лейбл): Delta music Ltd.
Номер по каталогу: CD 6055
Аудиокодек: FLAC (*.flac)
Тип рипа: image+.cue
Битрейт аудио: lossless
Продолжительность: 54:36
Источник (релизер): my disc
Наличие сканов в содержимом раздачи: да
Треклист:
01. Rawhide [0:02:02.50]
02. Jealousy [0:03:13.42]
03. Moonlight Gambler [0:02:48.73]
04. Cry of the Wild Goose [0:02:53.45]
05. Hummingbird [0:02:23.42]
06. Don't Fence Me In [0:03:08.28]
07. Strange Lady in Town [0:02:34.37]
08. Rose, Rose, I Love You [0:02:28.73]
09. There Must Be a Reason [0:03:11.10]
10. Answer Me [0:02:30.07]
11. Jezebel [0:03:17.58]
12. High Noon (Do Not Forsake Me) [0:02:45.57]
13. Mule Train [0:02:33.68]
14. Sixteen Tons [0:02:21.42]
15. Cool Water [0:03:03.23]
16. Wheel of Fortune [0:02:56.07]
17. Rain, Rain, Rain [0:02:51.03]
18. A Woman in Love [0:02:21.17]
19. Granada [0:02:50.00]
20. I Believe [0:02:19.63]
Лог создания рипа
Exact Audio Copy V1.0 beta 3 from 29. August 2011
Отчёт EAC об извлечении, выполненном 26. декабря 2016, 7:02
Frankie Laine / I Believe
Дисковод: TSSTcorpCDDVDW SH-224DB Adapter: 1 ID: 0
Режим чтения : Достоверность
Использование точного потока : Да
Отключение кэша аудио : Да
Использование указателей C2 : Нет
Коррекция смещения при чтении : 6
Способность читать области Lead-in и Lead-out : Нет
Заполнение пропущенных сэмплов тишиной : Да
Удаление блоков с тишиной в начале и конце : Нет
При вычислениях CRC использовались нулевые сэмплы : Да
Интерфейс : Встроенный Win32-интерфейс для Win NT/2000
Выходной формат : Пользовательский кодировщик
Выбранный битрейт : 768 kBit/s
Качество : Высокий
Добавление ID3-тега : Нет
Утилита сжатия : C:\Program Files\Exact Audio Copy\Flac\flac.exe
Дополнительные параметры : -V -8 -T "Date=%year%" -T "Genre=%genre%" %source%
TOC извлечённого CD
Трек | Старт | Длительность | Начальный сектор | Конечный сектор
---------------------------------------------------------------------
1 | 0:00.00 | 2:02.50 | 0 | 9199
2 | 2:02.50 | 3:13.42 | 9200 | 23716
3 | 5:16.17 | 2:48.73 | 23717 | 36389
4 | 8:05.15 | 2:53.45 | 36390 | 49409
5 | 10:58.60 | 2:23.42 | 49410 | 60176
6 | 13:22.27 | 3:08.28 | 60177 | 74304
7 | 16:30.55 | 2:34.37 | 74305 | 85891
8 | 19:05.17 | 2:28.73 | 85892 | 97064
9 | 21:34.15 | 3:11.10 | 97065 | 111399
10 | 24:45.25 | 2:30.07 | 111400 | 122656
11 | 27:15.32 | 3:17.58 | 122657 | 137489
12 | 30:33.15 | 2:45.57 | 137490 | 149921
13 | 33:18.72 | 2:33.68 | 149922 | 161464
14 | 35:52.65 | 2:21.42 | 161465 | 172081
15 | 38:14.32 | 3:03.23 | 172082 | 185829
16 | 41:17.55 | 2:56.07 | 185830 | 199036
17 | 44:13.62 | 2:51.03 | 199037 | 211864
18 | 47:04.65 | 2:21.17 | 211865 | 222456
19 | 49:26.07 | 2:50.00 | 222457 | 235206
20 | 52:16.07 | 2:19.63 | 235207 | 245694
Характеристики диапазона извлечения и сообщения об ошибках
Выбранный диапазон
Имя файла D:\lo$$le$$\F.Laine - best'97\Frankie Laine - I Believe.wav
Пиковый уровень 98.8 %
Скорость извлечения 7.4 X
Качество диапазона 100.0 %
CRC теста 2B839476
CRC копии 2B839476
Копирование... OK
Ошибок не произошло
Конец отчёта
==== Контрольная сумма отчёта 711C68D90E80BC40D5CC70D0C4F9D593C9FCAE7C50B291FB76E623FE5ED7BAEC ====
Об исполнителе (группе)
Фрэнки Лэйн (Frankie Laine, наст. имя Francesco Paolo LoVecchio, 30 марта 1913 — 6 февраля 2007) — американский певец итальянского происхождения, добившийся наибольшего успеха на рубеже 1940-х и 1950-х годов. Он был одним из группы этнических итальянцев (Фрэнк Синатра, Дин Мартин, Перри Комо, Тони Беннетт), которые задавали тон на американской эстраде тех лет.В 1930-е годы Лэйн странствовал по США, работая в качестве официанта и учителя танцев. В конечном счёте его мужественный баритон был замечен продюсерами, и в 1939 г. он сменил Перри Комо в качестве вокалиста кливлендского бигбэнда. В 1940-е годы Лэйн заработал репутацию талантливого джазового вокалиста. Он тяготел к джазу и в ранние годы своей сольной карьеры, когда его эстрадные хиты стали стабильно подниматься на вершину американских чартов продаж.
Американцам Лэйн запомнился как исполнитель энергичных шлягеров с налётом кантри-энд-вестерна — таких, как «The Cry of the Wild Goose» (1950). Он не раз записывал песни для популярных вестернов. Однако наибольшая популярность сопутствовала ему в Великобритании, где он установил несколько коммерческих рекордов. Так, в 1953 году его песни держались на первой строчке британских чартов неслыханные 27 недель, из них 18 недель пришлось на долю «I Believe» — самой известной баллады в исполнении Лэйна.
Умер 6 февраля 2007 г. от осложнения после операции на бедре.

Особая благодарность vicpalbk2006 за составление релиза
[Профиль] [ЛС]
Показать сообщения:    
Ответить на тему

Текущее время: Сегодня 04:35

Часовой пояс: GMT + 3



Вы не можете начинать темы
Вы не можете отвечать на сообщения
Вы не можете редактировать свои сообщения
Вы не можете удалять свои сообщения
Вы не можете голосовать в опросах
Вы не можете прикреплять файлы к сообщениям
Вы не можете скачивать файлы