(Reggae) Jah Division - Лучшее / The Best Of - 2004, FLAC (image+.cue) lossless

Ответить на тему
 
Автор Сообщение

MC.jeka ®

Стаж: 6 лет 3 месяца

Сообщений: 1

Пост 10-Май-2016 18:25

[Цитировать]

Jah Division / Лучшее / The Best Of
Жанр: Reggae
Страна-производитель диска: Россия
Год издания диска: 2004
Издатель (лейбл): Мистерия Звука
Номер по каталогу: DJAHD-171204
Страна: Россия
Аудиокодек: FLAC
Тип рипа: image+.cue
Битрейт аудио: lossless
Продолжительность: 51:20
Источник: собственный рип
Наличие сканов в содержимом раздачи: да
Треклист:
1. Заговор От Черной Немощи
2. Африка (Пронизана Стансами)
3. 4-я Лебединая Песня (Караван)
4. Магию Придумываем Сами (В Тихом Омуте...)
5. Айанай / INI
6. Активная Жизненная Позиция (Вера - Химера)
7. Амстердам (Город Красных Глаз)
8. Марихуана - Это Оружие Джа (Песня Жака Растамана)
9. Время - Песок (По Д.И.Хармсу)
10. Колыбельная
Лог создания рипа
Exact Audio Copy V1.1 from 23. June 2015
Отчёт EAC об извлечении, выполненном 9. мая 2016, 16:02
Jah Division / Лучшее-The Best Of
Дисковод: TSSTcorpCDDVDW SN-208BB Adapter: 1 ID: 0
Режим чтения : Достоверность
Использование точного потока : Да
Отключение кэша аудио : Да
Использование указателей C2 : Нет
Коррекция смещения при чтении : 6
Способность читать области Lead-in и Lead-out : Нет
Заполнение пропущенных сэмплов тишиной : Да
Удаление блоков с тишиной в начале и конце : Нет
При вычислениях CRC использовались нулевые сэмплы : Да
Интерфейс : Встроенный Win32-интерфейс для Win NT/2000
Выходной формат : Пользовательский кодировщик
Выбранный битрейт : 128 kBit/s
Качество : Высокий
Добавление ID3-тега : Нет
Утилита сжатия : C:\Program Files (x86)\Exact Audio Copy\Flac\flac.exe
Дополнительные параметры : -V -8 -T "Date=%year%" -T "Genre=%genre%" %source%
TOC извлечённого CD
Трек | Старт | Длительность | Начальный сектор | Конечный сектор
---------------------------------------------------------------------
1 | 0:00.00 | 4:46.36 | 0 | 21485
2 | 4:46.36 | 4:30.36 | 21486 | 41771
3 | 9:16.72 | 5:42.61 | 41772 | 67482
4 | 14:59.58 | 6:04.29 | 67483 | 94811
5 | 21:04.12 | 4:57.59 | 94812 | 117145
6 | 26:01.71 | 5:49.38 | 117146 | 143358
7 | 31:51.34 | 6:00.35 | 143359 | 170393
8 | 37:51.69 | 3:48.33 | 170394 | 187526
9 | 41:40.27 | 4:27.56 | 187527 | 207607
10 | 46:08.08 | 5:12.03 | 207608 | 231010
11 | 53:52.11 | 10:08.66 | 242411 | 288076
Характеристики диапазона извлечения и сообщения об ошибках
Выбранный диапазон
Имя файла C:\Users\1\Desktop\Jah Division - 2004 - Лучшее-The Best Of.wav
Пиковый уровень 98.0 %
Скорость извлечения 1.8 X
Качество диапазона 100.0 %
CRC теста 3BF13FFB
CRC копии 3BF13FFB
Копирование... OK
Ошибок не произошло
AccurateRip: сводка
Трек 1 отсутствует в базе данных
Трек 2 отсутствует в базе данных
Трек 3 отсутствует в базе данных
Трек 4 отсутствует в базе данных
Трек 5 отсутствует в базе данных
Трек 6 отсутствует в базе данных
Трек 7 отсутствует в базе данных
Трек 8 отсутствует в базе данных
Трек 9 отсутствует в базе данных
Трек 10 отсутствует в базе данных
Ни одного трека нет в базе AccurateRip
Конец отчёта
==== Контрольная сумма отчёта 6D369A9ADA80EDE600055A0A00442187D9E050A24ED3326C55B0D210E7B313B8 ====
Содержание индексной карты (.CUE)
REM DISCID 8F0F010B
REM COMMENT "ExactAudioCopy v1.1"
PERFORMER "Jah Division"
TITLE "Лучшее-The Best Of"
FILE "Jah Division - 2004 - Лучшее-The Best Of.flac" WAVE
TRACK 01 AUDIO
TITLE "Заговор от черной немощи"
PERFORMER "Jah Division"
FLAGS DCP
INDEX 01 00:00:00
TRACK 02 AUDIO
TITLE "Африка (пронизана стансами)"
PERFORMER "Jah Division"
FLAGS DCP
INDEX 00 04:44:34
INDEX 01 04:46:36
TRACK 03 AUDIO
TITLE "4-я лебединая песня (караван)"
PERFORMER "Jah Division"
FLAGS DCP
INDEX 00 09:14:70
INDEX 01 09:16:72
TRACK 04 AUDIO
TITLE "Магию придумываем сами (в тихом омуте...)"
PERFORMER "Jah Division"
FLAGS DCP
INDEX 00 14:57:56
INDEX 01 14:59:58
TRACK 05 AUDIO
TITLE "Айанай"
PERFORMER "Jah Division"
FLAGS DCP
INDEX 00 21:02:10
INDEX 01 21:04:12
TRACK 06 AUDIO
TITLE "Активная жизненная позиция (Вера-Химера)"
PERFORMER "Jah Division"
FLAGS DCP
INDEX 00 25:59:69
INDEX 01 26:01:71
TRACK 07 AUDIO
TITLE "Амстердам (город красных глаз)"
PERFORMER "Jah Division"
FLAGS DCP
INDEX 00 31:49:32
INDEX 01 31:51:34
TRACK 08 AUDIO
TITLE "Марихуана - это оружие Джа (песня Жака Растамана)"
PERFORMER "Jah Division"
FLAGS DCP
INDEX 00 37:49:67
INDEX 01 37:51:69
TRACK 09 AUDIO
TITLE "Время-песок (по Д.И.Хармсу)"
PERFORMER "Jah Division"
FLAGS DCP
INDEX 00 41:38:25
INDEX 01 41:40:27
TRACK 10 AUDIO
TITLE "Колыбельная"
PERFORMER "Jah Division"
FLAGS DCP
INDEX 00 46:06:06
INDEX 01 46:08:08
Enhanced

Video: DivX 5 720x576 25fps 1342kbps [V: mpeg4, yuv420p, 720x576, 1342 kb/s]
Audio: PCM 44100Hz stereo 1411kbps [A: pcm_s16le, 44100 Hz, 2 channels, s16, 1411 kb/s]

Особая благодарность zaalei за составление релиза
[Профиль] [ЛС]
Показать сообщения:    
Ответить на тему

Текущее время: Сегодня 08:47

Часовой пояс: GMT + 3



Вы не можете начинать темы
Вы не можете отвечать на сообщения
Вы не можете редактировать свои сообщения
Вы не можете удалять свои сообщения
Вы не можете голосовать в опросах
Вы не можете прикреплять файлы к сообщениям
Вы не можете скачивать файлы