[Lektorium.TV] Параллельное программирование [2012, RUS]

Ответить на тему
 
Автор Сообщение

zdravstvuite ®

Стаж: 5 лет 6 месяцев

Сообщений: 218250

Откуда: Киев

Орденов: 8

Пост 28-Май-2012 00:04

[Цитировать]

Параллельное программирование
Год выпуска: 2012
Производитель: Lektorium.TV
Сайт производителя: http://www.lektorium.tv
Автор: Евгений Калишенко
Продолжительность: 11x ~ 01:00:00
Тип раздаваемого материала: Видеоурок
Язык: Русский
Описание: Курс посвящен основным методикам параллельного программирования, применению специализированных библиотек и модулей, необходимых для распараллеливания процесса вычислений

Содержание

1. Введение;
2. Параллелизм;
3. Основы программирования потоков;
4. Синхронизация;
5. Виды синхронизации;
6. Поиск ошибок и анализ производительности. OpenMP;
7. Intel TBB и java.util.concurrent;
8. Кластеры и стандарт MPI;
9. Параллельные реализации алгоритмов;
10. Оптимизации в компиляторах;
11. Вычисления на GPU.
Файлы примеров: не предусмотрены
Формат видео: FLV
Видео: 1280*720(16:9), 25.000 кадров/сек, VP6
Аудио: MPEG Audio, 44.1 КГц, 96.0Кбит/сек, 2 канала

Список лекций

Лекция 1 - Введение

Отчет MediaInfo

Общее
Полное имя : !Параллельное программирование\Лекция 1.flv
Формат : Flash Video
Размер файла : 447 Мбайт
Продолжительность : 55 м.
Общий поток : 1126 Кбит/сек
Пометившая программа : Yet Another Metadata Injector for FLV - Version 1.4
Видео
Формат : VP6
Идентификатор кодека : 4
Продолжительность : 55 м.
Битрейт : 998 Кбит/сек
Ширина : 1280 пикселей
Высота : 720 пикселей
Соотношение сторон : 16:9
Режим частоты кадров : Постоянный
Частота кадров : 25,000 кадров/сек
Битовая глубина : 8 бит
Бит/(Пиксели*Кадры) : 0.043
Размер потока : 407 Мбайт (91%)
Аудио
Формат : MPEG Audio
Версия формата : Version 1
Профиль формата : Layer 3
Режим : Joint stereo
Идентификатор кодека : 2
Идентификатор кодека/Подсказка : MP3
Продолжительность : 55 м.
Вид битрейта : Постоянный
Битрейт : 96,0 Кбит/сек
Каналы : 2 канала
Частота : 44,1 КГц
Метод сжатия : С потерями
Задержка видео : -27 мс.
Размер потока : 39,6 Мбайт (9%)

Скриншоты

Лекция 2 - Параллелизм

Отчет MediaInfo

Общее
Полное имя : !Параллельное программирование\Лекция 2.flv
Формат : Flash Video
Размер файла : 594 Мбайт
Продолжительность : 1 ч. 13 м.
Общий поток : 1127 Кбит/сек
Пометившая программа : Yet Another Metadata Injector for FLV - Version 1.4
Видео
Формат : VP6
Идентификатор кодека : 4
Продолжительность : 1 ч. 13 м.
Битрейт : 50,1 Кбит/сек
Ширина : 1280 пикселей
Высота : 720 пикселей
Соотношение сторон : 16:9
Режим частоты кадров : Постоянный
Частота кадров : 25,000 кадров/сек
Битовая глубина : 8 бит
Бит/(Пиксели*Кадры) : 0.002
Размер потока : 540 Мбайт (91%)
Аудио
Формат : MPEG Audio
Версия формата : Version 1
Профиль формата : Layer 3
Режим : Joint stereo
Идентификатор кодека : 2
Идентификатор кодека/Подсказка : MP3
Продолжительность : 1 ч. 13 м.
Вид битрейта : Постоянный
Битрейт : 96,0 Кбит/сек
Каналы : 2 канала
Частота : 44,1 КГц
Метод сжатия : С потерями
Задержка видео : -27 мс.
Размер потока : 52,5 Мбайт (9%)

Скриншоты

Лекция 3 - Основы программирования потоков

Отчет MediaInfo

Общее
Полное имя : !Параллельное программирование\Лекция 3.flv
Формат : Flash Video
Размер файла : 575 Мбайт
Продолжительность : 1 ч. 11 м.
Общий поток : 1126 Кбит/сек
Пометившая программа : Yet Another Metadata Injector for FLV - Version 1.4
Видео
Формат : VP6
Идентификатор кодека : 4
Продолжительность : 1 ч. 11 м.
Битрейт : 19,3 Кбит/сек
Ширина : 1280 пикселей
Высота : 720 пикселей
Соотношение сторон : 16:9
Режим частоты кадров : Постоянный
Частота кадров : 25,000 кадров/сек
Битовая глубина : 8 бит
Бит/(Пиксели*Кадры) : 0.001
Размер потока : 523 Мбайт (91%)
Аудио
Формат : MPEG Audio
Версия формата : Version 1
Профиль формата : Layer 3
Режим : Joint stereo
Идентификатор кодека : 2
Идентификатор кодека/Подсказка : MP3
Продолжительность : 1 ч. 11 м.
Вид битрейта : Постоянный
Битрейт : 96,0 Кбит/сек
Каналы : 2 канала
Частота : 44,1 КГц
Метод сжатия : С потерями
Задержка видео : -27 мс.
Размер потока : 50,8 Мбайт (9%)

Скриншоты

Лекция 4 - Синхронизация

Отчет MediaInfo

Общее
Полное имя : !Параллельное программирование\Лекция 4.flv
Формат : Flash Video
Размер файла : 480 Мбайт
Продолжительность : 59 м.
Общий поток : 1126 Кбит/сек
Пометившая программа : Yet Another Metadata Injector for FLV - Version 1.4
Видео
Формат : VP6
Идентификатор кодека : 4
Продолжительность : 59 м.
Битрейт : 998 Кбит/сек
Ширина : 1280 пикселей
Высота : 720 пикселей
Соотношение сторон : 16:9
Режим частоты кадров : Постоянный
Частота кадров : 25,000 кадров/сек
Битовая глубина : 8 бит
Бит/(Пиксели*Кадры) : 0.043
Размер потока : 437 Мбайт (91%)
Аудио
Формат : MPEG Audio
Версия формата : Version 1
Профиль формата : Layer 3
Режим : Joint stereo
Идентификатор кодека : 2
Идентификатор кодека/Подсказка : MP3
Продолжительность : 59 м.
Вид битрейта : Постоянный
Битрейт : 96,0 Кбит/сек
Каналы : 2 канала
Частота : 44,1 КГц
Метод сжатия : С потерями
Задержка видео : -27 мс.
Размер потока : 42,5 Мбайт (9%)

Скриншоты

Лекция 5 - Виды синхронизации

Отчет MediaInfo

Общее
Полное имя : !Параллельное программирование\Лекция 5.flv
Формат : Flash Video
Размер файла : 628 Мбайт
Продолжительность : 1 ч. 17 м.
Общий поток : 1127 Кбит/сек
Пометившая программа : Yet Another Metadata Injector for FLV - Version 1.4
Видео
Формат : VP6
Идентификатор кодека : 4
Продолжительность : 1 ч. 17 м.
Битрейт : 102 Кбит/сек
Ширина : 1280 пикселей
Высота : 720 пикселей
Соотношение сторон : 16:9
Режим частоты кадров : Постоянный
Частота кадров : 25,000 кадров/сек
Битовая глубина : 8 бит
Бит/(Пиксели*Кадры) : 0.004
Размер потока : 571 Мбайт (91%)
Аудио
Формат : MPEG Audio
Версия формата : Version 1
Профиль формата : Layer 3
Режим : Joint stereo
Идентификатор кодека : 2
Идентификатор кодека/Подсказка : MP3
Продолжительность : 1 ч. 17 м.
Вид битрейта : Постоянный
Битрейт : 96,0 Кбит/сек
Каналы : 2 канала
Частота : 44,1 КГц
Метод сжатия : С потерями
Задержка видео : -27 мс.
Размер потока : 55,5 Мбайт (9%)

Скриншоты

Лекция 6 - Поиск ошибок и анализ производительности. OpenMP

Отчет MediaInfo

Общее
Полное имя : !Параллельное программирование\Лекция 6.flv
Формат : Flash Video
Размер файла : 521 Мбайт
Продолжительность : 1 ч. 4 м.
Общий поток : 1126 Кбит/сек
Пометившая программа : Yet Another Metadata Injector for FLV - Version 1.4
Видео
Формат : VP6
Идентификатор кодека : 4
Продолжительность : 1 ч. 4 м.
Битрейт : 998 Кбит/сек
Ширина : 1280 пикселей
Высота : 720 пикселей
Соотношение сторон : 16:9
Режим частоты кадров : Постоянный
Частота кадров : 25,000 кадров/сек
Битовая глубина : 8 бит
Бит/(Пиксели*Кадры) : 0.043
Размер потока : 474 Мбайт (91%)
Аудио
Формат : MPEG Audio
Версия формата : Version 1
Профиль формата : Layer 3
Режим : Joint stereo
Идентификатор кодека : 2
Идентификатор кодека/Подсказка : MP3
Продолжительность : 1 ч. 4 м.
Вид битрейта : Постоянный
Битрейт : 96,0 Кбит/сек
Каналы : 2 канала
Частота : 44,1 КГц
Метод сжатия : С потерями
Задержка видео : -27 мс.
Размер потока : 46,1 Мбайт (9%)

Скриншоты

Лекция 7 - Intel TBB и java.util.concurrent

Отчет MediaInfo

Общее
Полное имя : !Параллельное программирование\Лекция 7.flv
Формат : Flash Video
Размер файла : 603 Мбайт
Продолжительность : 1 ч. 14 м.
Общий поток : 1126 Кбит/сек
Пометившая программа : Yet Another Metadata Injector for FLV - Version 1.4
Видео
Формат : VP6
Идентификатор кодека : 4
Продолжительность : 1 ч. 14 м.
Битрейт : 64,5 Кбит/сек
Ширина : 1280 пикселей
Высота : 720 пикселей
Соотношение сторон : 16:9
Режим частоты кадров : Постоянный
Частота кадров : 25,000 кадров/сек
Битовая глубина : 8 бит
Бит/(Пиксели*Кадры) : 0.003
Размер потока : 549 Мбайт (91%)
Аудио
Формат : MPEG Audio
Версия формата : Version 1
Профиль формата : Layer 3
Режим : Joint stereo
Идентификатор кодека : 2
Идентификатор кодека/Подсказка : MP3
Продолжительность : 1 ч. 14 м.
Вид битрейта : Постоянный
Битрейт : 96,0 Кбит/сек
Каналы : 2 канала
Частота : 44,1 КГц
Метод сжатия : С потерями
Задержка видео : -27 мс.
Размер потока : 53,3 Мбайт (9%)

Скриншоты

Лекция 8 - Кластеры и стандарт MPI

Отчет MediaInfo

Общее
Полное имя : D:\Платный инет\Видео и фильмы\!PROG\!Параллельное программирование\Лекция 8.flv
Формат : Flash Video
Размер файла : 627 Мбайт
Продолжительность : 1 ч. 8 м.
Общий поток : 1286 Кбит/сек
Пометившая программа : Yet Another Metadata Injector for FLV - Version 1.4
Видео
Формат : VP6
Идентификатор кодека : 4
Продолжительность : 1 ч. 8 м.
Битрейт : 999 Кбит/сек
Ширина : 1280 пикселей
Высота : 720 пикселей
Соотношение сторон : 16:9
Режим частоты кадров : Постоянный
Частота кадров : 25,000 кадров/сек
Битовая глубина : 8 бит
Бит/(Пиксели*Кадры) : 0.043
Размер потока : 500 Мбайт (80%)
Аудио
Формат : MPEG Audio
Версия формата : Version 1
Профиль формата : Layer 3
Режим : Joint stereo
Идентификатор кодека : 2
Идентификатор кодека/Подсказка : MP3
Продолжительность : 1 ч. 8 м.
Вид битрейта : Постоянный
Битрейт : 256 Кбит/сек
Каналы : 2 канала
Частота : 44,1 КГц
Метод сжатия : С потерями
Задержка видео : -27 мс.
Размер потока : 126 Мбайт (20%)

Скриншоты

Лекция 9 - Параллельные реализации алгоритмов

Отчет MediaInfo

Общее
Полное имя : !Параллельное программирование\Лекция 9.flv
Формат : Flash Video
Размер файла : 572 Мбайт
Продолжительность : 1 ч. 2 м.
Общий поток : 1286 Кбит/сек
Пометившая программа : Yet Another Metadata Injector for FLV - Version 1.4
Видео
Формат : VP6
Идентификатор кодека : 4
Продолжительность : 1 ч. 2 м.
Битрейт : 999 Кбит/сек
Ширина : 1280 пикселей
Высота : 720 пикселей
Соотношение сторон : 16:9
Режим частоты кадров : Постоянный
Частота кадров : 25,000 кадров/сек
Битовая глубина : 8 бит
Бит/(Пиксели*Кадры) : 0.043
Размер потока : 456 Мбайт (80%)
Аудио
Формат : MPEG Audio
Версия формата : Version 1
Профиль формата : Layer 3
Режим : Joint stereo
Идентификатор кодека : 2
Идентификатор кодека/Подсказка : MP3
Продолжительность : 1 ч. 2 м.
Вид битрейта : Постоянный
Битрейт : 256 Кбит/сек
Каналы : 2 канала
Частота : 44,1 КГц
Метод сжатия : С потерями
Задержка видео : -27 мс.
Размер потока : 115 Мбайт (20%)

Скриншоты

Лекция 10 - Оптимизации в компиляторах

Отчет MediaInfo

Общее
Полное имя : !Параллельное программирование\Лекция 10.flv
Формат : Flash Video
Размер файла : 561 Мбайт
Продолжительность : 1 ч. 0 м.
Общий поток : 1286 Кбит/сек
Пометившая программа : Yet Another Metadata Injector for FLV - Version 1.4
Видео
Формат : VP6
Идентификатор кодека : 4
Продолжительность : 1 ч. 0 м.
Битрейт : 999 Кбит/сек
Ширина : 1280 пикселей
Высота : 720 пикселей
Соотношение сторон : 16:9
Режим частоты кадров : Постоянный
Частота кадров : 25,000 кадров/сек
Битовая глубина : 8 бит
Бит/(Пиксели*Кадры) : 0.043
Размер потока : 447 Мбайт (80%)
Аудио
Формат : MPEG Audio
Версия формата : Version 1
Профиль формата : Layer 3
Режим : Joint stereo
Идентификатор кодека : 2
Идентификатор кодека/Подсказка : MP3
Продолжительность : 1 ч. 0 м.
Вид битрейта : Постоянный
Битрейт : 256 Кбит/сек
Каналы : 2 канала
Частота : 44,1 КГц
Метод сжатия : С потерями
Задержка видео : -27 мс.
Размер потока : 113 Мбайт (20%)

Скриншоты

Лекция 11 - Вычисления на GPU

Отчет MediaInfo

Общее
Полное имя : !Параллельное программирование\Лекция 11.flv
Формат : Flash Video
Размер файла : 383 Мбайт
Продолжительность : 41 м.
Общий поток : 1285 Кбит/сек
Пометившая программа : Yet Another Metadata Injector for FLV - Version 1.4
Видео
Формат : VP6
Идентификатор кодека : 4
Продолжительность : 41 м.
Битрейт : 997 Кбит/сек
Ширина : 1280 пикселей
Высота : 720 пикселей
Соотношение сторон : 16:9
Режим частоты кадров : Постоянный
Частота кадров : 25,000 кадров/сек
Битовая глубина : 8 бит
Бит/(Пиксели*Кадры) : 0.043
Размер потока : 305 Мбайт (80%)
Аудио
Формат : MPEG Audio
Версия формата : Version 1
Профиль формата : Layer 3
Режим : Joint stereo
Идентификатор кодека : 2
Идентификатор кодека/Подсказка : MP3
Продолжительность : 41 м.
Вид битрейта : Постоянный
Битрейт : 256 Кбит/сек
Каналы : 2 канала
Частота : 44,1 КГц
Метод сжатия : С потерями
Задержка видео : -27 мс.
Размер потока : 77,3 Мбайт (20%)

Скриншоты

Лучшая благодарность для релизера - Ваш комментарий Буду стараться вставать на раздачу каждый день в 03:00 по Московскому времени и не уходить с неё до 17:00 либо до того момента, пока все активные пиры не завершат свою загрузку
Огромная благодарность за составление релиза Mixim333

_________________
Рад выслушать Ваши предложения, замечания, просьбы. Всем отвечу! (пусть и не всегда сразу, но отвечу)
[Профиль] [ЛС]

marta_i

Стаж: 3 месяца

Сообщений: 1

Пост 28-Мар-2017 23:04 (спустя 4 года 10 месяцев)

[Цитировать]

О спасибо большое, я давненько ищу что-то подобное.

_________________
Подпись отключена за нарушение правил форума
[Профиль] [ЛС]
Показать сообщения:    
Ответить на тему

Текущее время: Сегодня 12:07

Часовой пояс: GMT + 3



Вы не можете начинать темы
Вы не можете отвечать на сообщения
Вы не можете редактировать свои сообщения
Вы не можете удалять свои сообщения
Вы не можете голосовать в опросах
Вы не можете прикреплять файлы к сообщениям
Вы не можете скачивать файлы