КХЛ 16/17, РЧ: ЦСКА - Металлург Нк [11.01.2017, Хоккей, HD/1080i/КХЛ ТВ HD]

Ответить на тему
 
Автор Сообщение

yfriend ®

Стаж: 1 год 8 месяцев

Сообщений: 1

Пост 12-Янв-2017 12:40

[Цитировать]

КХЛ 16/17, Регулярный чемпионатЦСКА - Металлург Нк
-Вид спорта: Хоккей
Дата/Год выпуска: 11.01.2017
Язык комментариев: Русский
Телеканал: КХЛ ТВ HD
-Описание:
11 января 2017, среда. 19:30 МСК
Стадион: ЦСКА имени Всеволода Боброва (Москва, Россия) , 2 200 зрителей (39 % при вместимости 5 600)
Главный судья: Эдуард Ибатулин (Рудный, Казахстан) Главный судья: Сергей Черезов (Тюмень, Россия)-Автор рипа/записи: _Steep_
Качество: IPTV
Формат видео: TS
Видео: AVC/H.264, 1920x1080, 25 fps, ~6600 kb/s
Аудио: русский, MP2, 2 ch, 48000 Hz, 160 Kbps

Составы Продолжительность
02:11:22
Скриншоты Счёт/Итог MediaInfo
Общее
Идентификатор : 1 (0x1)
Полное имя : F:\ТВ\Хоккей\КХЛ 2016-2017\(2017.01.11)РЧ_ЦСКА - Металлург Нк_(КХЛ ТВ HD)_IPTV_1080i_steep.ts
Формат : MPEG-TS
Размер файла : 6,20 Гбайт
Продолжительность : 2 ч. 11 м.
Режим общего битрейта : Переменный
Общий поток : 6761 Кбит/сек
Видео
Идентификатор : 3510 (0xDB6)
Идентификатор меню : 1510 (0x5E6)
Формат : AVC
Формат/Информация : Advanced Video Codec
Профиль формата : High@L4
Параметр CABAC формата : Да
Параметр ReFrames формата : 3 кадра
Идентификатор кодека : 27
Продолжительность : 2 ч. 11 м.
Битрейт : 6265 Кбит/сек
Ширина : 1920 пикселей
Высота : 1080 пикселей
Соотношение сторон : 16:9
Частота кадров : 25,000 кадров/сек
Стандарт вещания : Component
Цветовое пространство : YUV
Субдискретизация насыщенности : 4:2:0
Битовая глубина : 8 бит
Тип развёртки : Чересстрочная
Метод сохранения типа развёртки : Раздельные поля
Порядок развёртки : Верхнее поле первое
Бит/(Пиксели*Кадры) : 0.121
Размер потока : 5,75 Гбайт (93%)
Цветовой диапазон : Limited
Основные цвета : BT.709
Характеристики трансфера : BT.709
Коэффициенты матрицы : BT.709
Аудио
Идентификатор : 4510 (0x119E)
Идентификатор меню : 1510 (0x5E6)
Формат : MPEG Audio
Версия формата : Version 1
Профиль формата : Layer 2
Идентификатор кодека : 3
Продолжительность : 2 ч. 11 м.
Вид битрейта : Постоянный
Битрейт : 160 Кбит/сек
Каналы : 2 канала
Частота : 48,0 КГц
Метод сжатия : С потерями
Задержка видео : -120 мс.
Размер потока : 150 Мбайт (2%)
Язык : Russian

Особая благодарность _Steep_ за составление релиза
[Профиль] [ЛС]
Показать сообщения:    
Ответить на тему

Текущее время: Сегодня 06:37

Часовой пояс: GMT + 3



Вы не можете начинать темы
Вы не можете отвечать на сообщения
Вы не можете редактировать свои сообщения
Вы не можете удалять свои сообщения
Вы не можете голосовать в опросах
Вы не можете прикреплять файлы к сообщениям
Вы не можете скачивать файлы