(Bluegrass) [CD] Butch Baldassari - New Classics for Bluegrass Mandolin - 2000, FLAC (tracks+.cue), lossless

Ответить на тему
 
Автор Сообщение

dank4ik ®

Стаж: 3 года 8 месяцев

Сообщений: 3

Пост 12-Янв-2017 03:10

[Цитировать]

Butch Baldassari / New Classics for Bluegrass Mandolin
Жанр: Bluegrass
Носитель: CD
Год издания: 2000
Издатель (лейбл): SoundArt Recordings
Номер по каталогу: SAR-1252
Аудиокодек: FLAC (*.flac)
Тип рипа: tracks+.cue
Битрейт аудио: lossless
Продолжительность: 00:50:16
Источник (релизер): Private collection
Наличие сканов в содержимом раздачи: нет
Треклист:
1 Consider This
2 Minorsville
3 Boone County Kentucky
4 Perseverance Blues
5 Old Jericho Waltz
6 Wagons Ho
7 Sleepy Gap/Tucker
8 King Wilkie
9 Down City, Pt. 1
10 It's Rainin' the Blues…for Bill Monrone
11 Leaving Portland
12 A Place In the Heart
Лог создания рипа
Exact Audio Copy V1.0 beta 3 from 29. August 2011
EAC extraction logfile from 18. November 2014, 20:20
Butch Baldassari / Bluegrass Mandolin
Used drive : HP DVD Writer 1040r Adapter: 0 ID: 1
Read mode : Secure
Utilize accurate stream : Yes
Defeat audio cache : Yes
Make use of C2 pointers : No
Read offset correction : 6
Overread into Lead-In and Lead-Out : No
Fill up missing offset samples with silence : Yes
Delete leading and trailing silent blocks : No
Null samples used in CRC calculations : Yes
Used interface : Native Win32 interface for Win NT & 2000
Gap handling : Appended to previous track
Used output format : User Defined Encoder
Selected bitrate : 1024 kBit/s
Quality : High
Add ID3 tag : No
Command line compressor : C:\Program Files (x86)\Exact Audio Copy\Flac\flac.exe
Additional command line options : -8 -V -T "ARTIST=%artist%" -T "TITLE=%title%" -T "ALBUM=%albumtitle%" -T "DATE=%year%" -T "TRACKNUMBER=%tracknr%" -T "GENRE=%genre%" -T "PERFORMER=%albuminterpret%" -T "COMPOSER=%composer%" %haslyrics%--tag-from-file=LYRICS="%lyricsfile%"%haslyrics% -T "ALBUMARTIST=%albumartist%" -T "DISCNUMBER=%cdnumber%" -T "TOTALDISCS=%totalcds%" -T "TOTALTRACKS=%numtracks%" -T "COMMENT=%comment%" %source% -o %dest%
TOC of the extracted CD
Track | Start | Length | Start sector | End sector
---------------------------------------------------------
1 | 0:00.00 | 5:41.02 | 0 | 25576
2 | 5:41.02 | 4:34.13 | 25577 | 46139
3 | 10:15.15 | 2:55.37 | 46140 | 59301
4 | 13:10.52 | 3:47.20 | 59302 | 76346
5 | 16:57.72 | 4:06.23 | 76347 | 94819
6 | 21:04.20 | 3:11.22 | 94820 | 109166
7 | 24:15.42 | 3:44.48 | 109167 | 126014
8 | 28:00.15 | 3:13.62 | 126015 | 140551
9 | 31:14.02 | 4:45.05 | 140552 | 161931
10 | 35:59.07 | 8:15.53 | 161932 | 199109
11 | 44:14.60 | 2:44.65 | 199110 | 211474
12 | 46:59.50 | 3:17.25 | 211475 | 226274
Track 1
Filename E:\EAC2\Butch Baldassari - New Classics for Bluegrass Mandolin (2000) [FLAC] {SoundArt Recordings - SAR-1252}\01 - Butch Baldassari - Consider This.wav
Pre-gap length 0:00:02.00
Peak level 92.2 %
Extraction speed 1.9 X
Track quality 100.0 %
Test CRC 4D7C27BF
Copy CRC 4D7C27BF
Track not present in AccurateRip database
Copy OK
Track 2
Filename E:\EAC2\Butch Baldassari - New Classics for Bluegrass Mandolin (2000) [FLAC] {SoundArt Recordings - SAR-1252}\02 - Butch Baldassari - Minorsville.wav
Pre-gap length 0:00:01.60
Peak level 90.8 %
Extraction speed 2.1 X
Track quality 100.0 %
Test CRC F1146FF0
Copy CRC F1146FF0
Track not present in AccurateRip database
Copy OK
Track 3
Filename E:\EAC2\Butch Baldassari - New Classics for Bluegrass Mandolin (2000) [FLAC] {SoundArt Recordings - SAR-1252}\03 - Butch Baldassari - Boone County Kentucky.wav
Pre-gap length 0:00:02.17
Peak level 93.8 %
Extraction speed 2.1 X
Track quality 100.0 %
Test CRC A7F94B0A
Copy CRC A7F94B0A
Track not present in AccurateRip database
Copy OK
Track 4
Filename E:\EAC2\Butch Baldassari - New Classics for Bluegrass Mandolin (2000) [FLAC] {SoundArt Recordings - SAR-1252}\04 - Butch Baldassari - Perseverance Blues.wav
Pre-gap length 0:00:01.86
Peak level 91.4 %
Extraction speed 2.3 X
Track quality 100.0 %
Test CRC ED428166
Copy CRC ED428166
Track not present in AccurateRip database
Copy OK
Track 5
Filename E:\EAC2\Butch Baldassari - New Classics for Bluegrass Mandolin (2000) [FLAC] {SoundArt Recordings - SAR-1252}\05 - Butch Baldassari - Old Jericho Waltz.wav
Pre-gap length 0:00:01.76
Peak level 91.1 %
Extraction speed 2.1 X
Track quality 99.9 %
Test CRC F1357378
Copy CRC F1357378
Track not present in AccurateRip database
Copy OK
Track 6
Filename E:\EAC2\Butch Baldassari - New Classics for Bluegrass Mandolin (2000) [FLAC] {SoundArt Recordings - SAR-1252}\06 - Butch Baldassari - Wagons HO.wav
Pre-gap length 0:00:02.40
Peak level 91.8 %
Extraction speed 2.5 X
Track quality 100.0 %
Test CRC 3B77E3CA
Copy CRC 3B77E3CA
Track not present in AccurateRip database
Copy OK
Track 7
Filename E:\EAC2\Butch Baldassari - New Classics for Bluegrass Mandolin (2000) [FLAC] {SoundArt Recordings - SAR-1252}\07 - Sleepy Gap - Tucker.wav
Pre-gap length 0:00:02.02
Peak level 91.5 %
Extraction speed 2.7 X
Track quality 100.0 %
Test CRC 4E086864
Copy CRC 4E086864
Track not present in AccurateRip database
Copy OK
Track 8
Filename E:\EAC2\Butch Baldassari - New Classics for Bluegrass Mandolin (2000) [FLAC] {SoundArt Recordings - SAR-1252}\08 - Butch Baldassari - King Wilkie.wav
Pre-gap length 0:00:01.77
Peak level 97.7 %
Extraction speed 2.8 X
Track quality 100.0 %
Test CRC FC8AFAD1
Copy CRC FC8AFAD1
Track not present in AccurateRip database
Copy OK
Track 9
Filename E:\EAC2\Butch Baldassari - New Classics for Bluegrass Mandolin (2000) [FLAC] {SoundArt Recordings - SAR-1252}\09 - Butch Baldassari - Down City - Part 1.wav
Pre-gap length 0:00:02.33
Peak level 91.2 %
Extraction speed 3.1 X
Track quality 100.0 %
Test CRC A4FE138D
Copy CRC A4FE138D
Track not present in AccurateRip database
Copy OK
Track 10
Filename E:\EAC2\Butch Baldassari - New Classics for Bluegrass Mandolin (2000) [FLAC] {SoundArt Recordings - SAR-1252}\10 - Butch Baldassari - It's Rainin' The Blues.wav
Peak level 92.3 %
Extraction speed 3.4 X
Track quality 100.0 %
Test CRC E3797652
Copy CRC E3797652
Track not present in AccurateRip database
Copy OK
Track 11
Filename E:\EAC2\Butch Baldassari - New Classics for Bluegrass Mandolin (2000) [FLAC] {SoundArt Recordings - SAR-1252}\11 - Butch Baldassari - Leaving Portland.wav
Pre-gap length 0:00:02.06
Peak level 91.2 %
Extraction speed 3.1 X
Track quality 100.0 %
Test CRC E2BD140C
Copy CRC E2BD140C
Track not present in AccurateRip database
Copy OK
Track 12
Filename E:\EAC2\Butch Baldassari - New Classics for Bluegrass Mandolin (2000) [FLAC] {SoundArt Recordings - SAR-1252}\12 - Butch Baldassari - A Place In The Heart.wav
Pre-gap length 0:00:02.04
Peak level 90.6 %
Extraction speed 3.3 X
Track quality 100.0 %
Test CRC 81918A8B
Copy CRC 81918A8B
Track not present in AccurateRip database
Copy OK
None of the tracks are present in the AccurateRip database
No errors occurred
End of status report
---- CUETools DB Plugin V2.1.3
[CTDB TOCID: bq0m3j7buAYv0ccvhX.6_6niu9M-] found, Submit result: already submitted
[8a316b93] (1/1) Accurately ripped
==== Log checksum A525248AF5C7DFD4A9D31ADE0540CBA146C1C0BBBD33AEFC98F9CDC0B4E0FC3C ====
------------------------------------------------------------
Exact Audio Copy V1.0 beta 3 from 29. August 2011
EAC extraction logfile from 19. November 2014, 3:13
Butch Baldassari / Bluegrass Mandolin
Used drive : HP DVD Writer 1040r Adapter: 0 ID: 1
Read mode : Secure
Utilize accurate stream : Yes
Defeat audio cache : Yes
Make use of C2 pointers : No
Read offset correction : 6
Overread into Lead-In and Lead-Out : No
Fill up missing offset samples with silence : Yes
Delete leading and trailing silent blocks : No
Null samples used in CRC calculations : Yes
Used interface : Native Win32 interface for Win NT & 2000
Gap handling : Appended to previous track
Used output format : User Defined Encoder
Selected bitrate : 1024 kBit/s
Quality : High
Add ID3 tag : No
Command line compressor : C:\Program Files (x86)\Exact Audio Copy\Flac\flac.exe
Additional command line options : -8 -V -T "ARTIST=%artist%" -T "TITLE=%title%" -T "ALBUM=%albumtitle%" -T "DATE=%year%" -T "TRACKNUMBER=%tracknr%" -T "GENRE=%genre%" -T "PERFORMER=%albuminterpret%" -T "COMPOSER=%composer%" %haslyrics%--tag-from-file=LYRICS="%lyricsfile%"%haslyrics% -T "ALBUMARTIST=%albumartist%" -T "DISCNUMBER=%cdnumber%" -T "TOTALDISCS=%totalcds%" -T "TOTALTRACKS=%numtracks%" -T "COMMENT=%comment%" %source% -o %dest%
TOC of the extracted CD
Track | Start | Length | Start sector | End sector
---------------------------------------------------------
1 | 0:00.00 | 5:41.02 | 0 | 25576
2 | 5:41.02 | 4:34.13 | 25577 | 46139
3 | 10:15.15 | 2:55.37 | 46140 | 59301
4 | 13:10.52 | 3:47.20 | 59302 | 76346
5 | 16:57.72 | 4:06.23 | 76347 | 94819
6 | 21:04.20 | 3:11.22 | 94820 | 109166
7 | 24:15.42 | 3:44.48 | 109167 | 126014
8 | 28:00.15 | 3:13.62 | 126015 | 140551
9 | 31:14.02 | 4:45.05 | 140552 | 161931
10 | 35:59.07 | 8:15.53 | 161932 | 199109
11 | 44:14.60 | 2:44.65 | 199110 | 211474
12 | 46:59.50 | 3:17.25 | 211475 | 226274
Track 1
Filename E:\EAC2\Butch Baldassari - New Classics for Bluegrass Mandolin (2000) [FLAC] {SoundArt Recordings - SAR-1252}\01 - Butch Baldassari - Consider This.wav
Pre-gap length 0:00:02.00
Peak level 92.2 %
Extraction speed 1.9 X
Track quality 100.0 %
Test CRC 4D7C27BF
Copy CRC 4D7C27BF
Track not present in AccurateRip database
Copy OK
Track 2
Filename E:\EAC2\Butch Baldassari - New Classics for Bluegrass Mandolin (2000) [FLAC] {SoundArt Recordings - SAR-1252}\02 - Butch Baldassari - Minorsville.wav
Pre-gap length 0:00:01.60
Peak level 90.8 %
Extraction speed 2.1 X
Track quality 100.0 %
Test CRC F1146FF0
Copy CRC F1146FF0
Track not present in AccurateRip database
Copy OK
Track 3
Filename E:\EAC2\Butch Baldassari - New Classics for Bluegrass Mandolin (2000) [FLAC] {SoundArt Recordings - SAR-1252}\03 - Butch Baldassari - Boone County Kentucky.wav
Pre-gap length 0:00:02.17
Peak level 93.8 %
Extraction speed 2.1 X
Track quality 100.0 %
Test CRC A7F94B0A
Copy CRC A7F94B0A
Track not present in AccurateRip database
Copy OK
Track 4
Filename E:\EAC2\Butch Baldassari - New Classics for Bluegrass Mandolin (2000) [FLAC] {SoundArt Recordings - SAR-1252}\04 - Butch Baldassari - Perseverance Blues.wav
Pre-gap length 0:00:01.86
Peak level 91.4 %
Extraction speed 2.3 X
Track quality 100.0 %
Test CRC ED428166
Copy CRC ED428166
Track not present in AccurateRip database
Copy OK
Track 5
Filename E:\EAC2\Butch Baldassari - New Classics for Bluegrass Mandolin (2000) [FLAC] {SoundArt Recordings - SAR-1252}\05 - Butch Baldassari - Old Jericho Waltz.wav
Pre-gap length 0:00:01.76
Peak level 91.1 %
Extraction speed 2.1 X
Track quality 99.9 %
Test CRC F1357378
Copy CRC F1357378
Track not present in AccurateRip database
Copy OK
Track 6
Filename E:\EAC2\Butch Baldassari - New Classics for Bluegrass Mandolin (2000) [FLAC] {SoundArt Recordings - SAR-1252}\06 - Butch Baldassari - Wagons HO.wav
Pre-gap length 0:00:02.40
Peak level 91.8 %
Extraction speed 2.5 X
Track quality 100.0 %
Test CRC 3B77E3CA
Copy CRC 3B77E3CA
Track not present in AccurateRip database
Copy OK
Track 7
Filename E:\EAC2\Butch Baldassari - New Classics for Bluegrass Mandolin (2000) [FLAC] {SoundArt Recordings - SAR-1252}\07 - Sleepy Gap - Tucker.wav
Pre-gap length 0:00:02.02
Peak level 91.5 %
Extraction speed 2.7 X
Track quality 100.0 %
Test CRC 4E086864
Copy CRC 4E086864
Track not present in AccurateRip database
Copy OK
Track 8
Filename E:\EAC2\Butch Baldassari - New Classics for Bluegrass Mandolin (2000) [FLAC] {SoundArt Recordings - SAR-1252}\08 - Butch Baldassari - King Wilkie.wav
Pre-gap length 0:00:01.77
Peak level 97.7 %
Extraction speed 2.8 X
Track quality 100.0 %
Test CRC FC8AFAD1
Copy CRC FC8AFAD1
Track not present in AccurateRip database
Copy OK
Track 9
Filename E:\EAC2\Butch Baldassari - New Classics for Bluegrass Mandolin (2000) [FLAC] {SoundArt Recordings - SAR-1252}\09 - Butch Baldassari - Down City - Part 1.wav
Pre-gap length 0:00:02.33
Peak level 91.2 %
Extraction speed 3.1 X
Track quality 100.0 %
Test CRC A4FE138D
Copy CRC A4FE138D
Track not present in AccurateRip database
Copy OK
Track 10
Filename E:\EAC2\Butch Baldassari - New Classics for Bluegrass Mandolin (2000) [FLAC] {SoundArt Recordings - SAR-1252}\10 - Butch Baldassari - It's Rainin' The Blues.wav
Peak level 92.3 %
Extraction speed 3.4 X
Track quality 100.0 %
Test CRC E3797652
Copy CRC E3797652
Track not present in AccurateRip database
Copy OK
Track 11
Filename E:\EAC2\Butch Baldassari - New Classics for Bluegrass Mandolin (2000) [FLAC] {SoundArt Recordings - SAR-1252}\11 - Butch Baldassari - Leaving Portland.wav
Pre-gap length 0:00:02.06
Peak level 91.2 %
Extraction speed 3.1 X
Track quality 100.0 %
Test CRC E2BD140C
Copy CRC E2BD140C
Track not present in AccurateRip database
Copy OK
Track 12
Filename E:\EAC2\Butch Baldassari - New Classics for Bluegrass Mandolin (2000) [FLAC] {SoundArt Recordings - SAR-1252}\12 - Butch Baldassari - A Place In The Heart.wav
Pre-gap length 0:00:02.04
Peak level 90.6 %
Extraction speed 3.3 X
Track quality 100.0 %
Test CRC 81918A8B
Copy CRC 81918A8B
Track not present in AccurateRip database
Copy OK
None of the tracks are present in the AccurateRip database
No errors occurred
End of status report
---- CUETools DB Plugin V2.1.3
[CTDB TOCID: bq0m3j7buAYv0ccvhX.6_6niu9M-] found, Submit result: already submitted
[8a316b93] (1/1) Accurately ripped
==== Log checksum EA66338F95953373988E1364EF76621C4FCF6C9DB1BA044AA02DA69022B34FCA ====
Содержание индексной карты (.CUE)
REM GENRE Bluegrass
REM DISCID A80BC90C
REM COMMENT "ExactAudioCopy v1.0b3"
PERFORMER "Butch Baldassari"
TITLE "Bluegrass Mandolin"
FILE "01 - Butch Baldassari - Consider This.wav" WAVE
TRACK 01 AUDIO
TITLE "Consider This"
PERFORMER "Butch Baldassari"
INDEX 01 00:00:00
TRACK 02 AUDIO
TITLE "Minorsville"
PERFORMER "Butch Baldassari"
INDEX 00 05:39:32
FILE "02 - Butch Baldassari - Minorsville.wav" WAVE
INDEX 01 00:00:00
TRACK 03 AUDIO
TITLE "Boone County Kentucky"
PERFORMER "Butch Baldassari"
INDEX 00 04:32:00
FILE "03 - Butch Baldassari - Boone County Kentucky.wav" WAVE
INDEX 01 00:00:00
TRACK 04 AUDIO
TITLE "Perseverance Blues"
PERFORMER "Butch Baldassari"
INDEX 00 02:53:47
FILE "04 - Butch Baldassari - Perseverance Blues.wav" WAVE
INDEX 01 00:00:00
TRACK 05 AUDIO
TITLE "Old Jericho Waltz"
PERFORMER "Butch Baldassari"
INDEX 00 03:45:38
FILE "05 - Butch Baldassari - Old Jericho Waltz.wav" WAVE
INDEX 01 00:00:00
TRACK 06 AUDIO
TITLE "Wagons HO"
PERFORMER "Butch Baldassari"
INDEX 00 04:03:68
FILE "06 - Butch Baldassari - Wagons HO.wav" WAVE
INDEX 01 00:00:00
TRACK 07 AUDIO
TITLE "Tucker"
PERFORMER "Sleepy Gap"
INDEX 00 03:09:20
FILE "07 - Sleepy Gap - Tucker.wav" WAVE
INDEX 01 00:00:00
TRACK 08 AUDIO
TITLE "King Wilkie"
PERFORMER "Butch Baldassari"
INDEX 00 03:42:65
FILE "08 - Butch Baldassari - King Wilkie.wav" WAVE
INDEX 01 00:00:00
TRACK 09 AUDIO
TITLE "Down City - Part 1"
PERFORMER "Butch Baldassari"
INDEX 00 03:11:37
FILE "09 - Butch Baldassari - Down City - Part 1.wav" WAVE
INDEX 01 00:00:00
FILE "10 - Butch Baldassari - It's Rainin' The Blues.wav" WAVE
TRACK 10 AUDIO
TITLE "It's Rainin' The Blues"
PERFORMER "Butch Baldassari"
INDEX 01 00:00:00
TRACK 11 AUDIO
TITLE "Leaving Portland"
PERFORMER "Butch Baldassari"
INDEX 00 08:13:48
FILE "11 - Butch Baldassari - Leaving Portland.wav" WAVE
INDEX 01 00:00:00
TRACK 12 AUDIO
TITLE "A Place In The Heart"
PERFORMER "Butch Baldassari"
INDEX 00 02:42:62
FILE "12 - Butch Baldassari - A Place In The Heart.wav" WAVE
INDEX 01 00:00:00

Особая благодарность mandof5 за составление релиза
[Профиль] [ЛС]
Показать сообщения:    
Ответить на тему

Текущее время: Сегодня 13:25

Часовой пояс: GMT + 3



Вы не можете начинать темы
Вы не можете отвечать на сообщения
Вы не можете редактировать свои сообщения
Вы не можете удалять свои сообщения
Вы не можете голосовать в опросах
Вы не можете прикреплять файлы к сообщениям
Вы не можете скачивать файлы