(Bluegrass, Country) [CD] Cody Shuler - Cody Shuler - 2015, FLAC (tracks+.cue), lossless

Ответить на тему
 
Автор Сообщение

nezzlobin ®

Стаж: 5 лет 8 месяцев

Сообщений: 2

Пост 11-Янв-2017 18:50

[Цитировать]

Cody Shuler / Cody Shuler
Жанр: Bluegrass, Country
Носитель: CD
Год издания: 2015
Издатель (лейбл): Rural Rhythm
Номер по каталогу: RUR-1131
Аудиокодек: FLAC (*.flac)
Тип рипа: tracks+.cue
Битрейт аудио: lossless
Продолжительность: 00:42:45
Источник (релизер): Private collection
Наличие сканов в содержимом раздачи: нет
Треклист:
01 My Home Is On This Ole Boxcar
02 The Beautiful Hills
03 Do You Wrong Kind of Girl
04 Listen To The Hammer Ring
05 The One That I Love Is Gone
06 When The Bonnets Were In Bloom
07 Three Rivers Rambler
08 Goodbye, My Love, Goodbye
09 Sea of Galilee
10 Love Me Too
11 Bryson Station
12 The Day Love Was Nailed To A Tree
Лог создания рипа
Exact Audio Copy V1.0 beta 4 from 7. December 2014
EAC extraction logfile from 29. March 2015, 6:53
Cody Shuler / Cody Shuler
Used drive : HP DVD Writer 1040r Adapter: 1 ID: 0
Read mode : Secure
Utilize accurate stream : Yes
Defeat audio cache : Yes
Make use of C2 pointers : No
Read offset correction : 6
Overread into Lead-In and Lead-Out : No
Fill up missing offset samples with silence : Yes
Delete leading and trailing silent blocks : No
Null samples used in CRC calculations : Yes
Used interface : Native Win32 interface for Win NT & 2000
Gap handling : Appended to previous track
Used output format : User Defined Encoder
Selected bitrate : 1024 kBit/s
Quality : High
Add ID3 tag : No
Command line compressor : K:\Program Files (x86)\Exact Audio Copy\Flac\flac.exe
Additional command line options : -8 -V -T "ARTIST=%artist%" -T "TITLE=%title%" -T "ALBUM=%albumtitle%" -T "DATE=%year%" -T "TRACKNUMBER=%tracknr%" -T "GENRE=%genre%" -T "PERFORMER=%albuminterpret%" -T "COMPOSER=%composer%" %haslyrics%--tag-from-file=LYRICS="%lyricsfile%"%haslyrics% -T "ALBUMARTIST=%albumartist%" -T "DISCNUMBER=%cdnumber%" -T "TOTALDISCS=%totalcds%" -T "TOTALTRACKS=%numtracks%" -T "COMMENT=%comment%" %source% -o %dest%
TOC of the extracted CD
Track | Start | Length | Start sector | End sector
---------------------------------------------------------
1 | 0:00.00 | 4:30.57 | 0 | 20306
2 | 4:30.57 | 3:06.55 | 20307 | 34311
3 | 7:37.37 | 2:31.40 | 34312 | 45676
4 | 10:09.02 | 3:47.21 | 45677 | 62722
5 | 13:56.23 | 3:13.01 | 62723 | 77198
6 | 17:09.24 | 3:14.32 | 77199 | 91780
7 | 20:23.56 | 4:50.05 | 91781 | 113535
8 | 25:13.61 | 2:52.31 | 113536 | 126466
9 | 28:06.17 | 4:03.48 | 126467 | 144739
10 | 32:09.65 | 2:55.56 | 144740 | 157920
11 | 35:05.46 | 3:33.14 | 157921 | 173909
12 | 38:38.60 | 4:05.59 | 173910 | 192343
Track 1
Filename E:\EAC2\Cody Shuler - Cody Shuler (2015) [FLAC] {Rural Rhythm RUR-1131}\01 My Home Is On This Ole Boxcar.wav
Pre-gap length 0:00:02.00
Peak level 92.0 %
Extraction speed 2.1 X
Track quality 100.0 %
Test CRC 18A6E735
Copy CRC 18A6E735
Track not present in AccurateRip database
Copy OK
Track 2
Filename E:\EAC2\Cody Shuler - Cody Shuler (2015) [FLAC] {Rural Rhythm RUR-1131}\02 The Beautiful Hills.wav
Pre-gap length 0:00:02.00
Peak level 96.7 %
Extraction speed 2.1 X
Track quality 100.0 %
Test CRC 1F8CE392
Copy CRC 1F8CE392
Track not present in AccurateRip database
Copy OK
Track 3
Filename E:\EAC2\Cody Shuler - Cody Shuler (2015) [FLAC] {Rural Rhythm RUR-1131}\03 Do You Wrong Kind of Girl.wav
Pre-gap length 0:00:02.00
Peak level 97.6 %
Extraction speed 2.2 X
Track quality 100.0 %
Test CRC 9CEC512F
Copy CRC 9CEC512F
Track not present in AccurateRip database
Copy OK
Track 4
Filename E:\EAC2\Cody Shuler - Cody Shuler (2015) [FLAC] {Rural Rhythm RUR-1131}\04 Listen To The Hammer Ring.wav
Pre-gap length 0:00:02.00
Peak level 97.3 %
Extraction speed 2.4 X
Track quality 100.0 %
Test CRC AE41A97D
Copy CRC AE41A97D
Track not present in AccurateRip database
Copy OK
Track 5
Filename E:\EAC2\Cody Shuler - Cody Shuler (2015) [FLAC] {Rural Rhythm RUR-1131}\05 The One That I Love Is Gone.wav
Pre-gap length 0:00:02.00
Peak level 97.3 %
Extraction speed 2.5 X
Track quality 100.0 %
Test CRC 48E5678A
Copy CRC 48E5678A
Track not present in AccurateRip database
Copy OK
Track 6
Filename E:\EAC2\Cody Shuler - Cody Shuler (2015) [FLAC] {Rural Rhythm RUR-1131}\06 When The Bonnets Were In Bloom.wav
Pre-gap length 0:00:02.00
Peak level 97.4 %
Extraction speed 2.6 X
Track quality 100.0 %
Test CRC BCAFC130
Copy CRC BCAFC130
Track not present in AccurateRip database
Copy OK
Track 7
Filename E:\EAC2\Cody Shuler - Cody Shuler (2015) [FLAC] {Rural Rhythm RUR-1131}\07 Three Rivers Rambler.wav
Pre-gap length 0:00:02.00
Peak level 97.4 %
Extraction speed 2.9 X
Track quality 100.0 %
Test CRC 121EDFCA
Copy CRC 121EDFCA
Track not present in AccurateRip database
Copy OK
Track 8
Filename E:\EAC2\Cody Shuler - Cody Shuler (2015) [FLAC] {Rural Rhythm RUR-1131}\08 Goodbye, My Love, Goodbye.wav
Pre-gap length 0:00:02.00
Peak level 97.3 %
Extraction speed 2.8 X
Track quality 100.0 %
Test CRC A4B7980A
Copy CRC A4B7980A
Track not present in AccurateRip database
Copy OK
Track 9
Filename E:\EAC2\Cody Shuler - Cody Shuler (2015) [FLAC] {Rural Rhythm RUR-1131}\09 Sea of Galilee.wav
Pre-gap length 0:00:02.00
Peak level 97.4 %
Extraction speed 3.1 X
Track quality 100.0 %
Test CRC 2B60979E
Copy CRC 2B60979E
Track not present in AccurateRip database
Copy OK
Track 10
Filename E:\EAC2\Cody Shuler - Cody Shuler (2015) [FLAC] {Rural Rhythm RUR-1131}\10 Love Me Too.wav
Pre-gap length 0:00:02.00
Peak level 97.6 %
Extraction speed 3.1 X
Track quality 100.0 %
Test CRC A9829F71
Copy CRC A9829F71
Track not present in AccurateRip database
Copy OK
Track 11
Filename E:\EAC2\Cody Shuler - Cody Shuler (2015) [FLAC] {Rural Rhythm RUR-1131}\11 Bryson Station.wav
Pre-gap length 0:00:02.00
Peak level 96.3 %
Extraction speed 3.2 X
Track quality 100.0 %
Test CRC 7215354D
Copy CRC 7215354D
Track not present in AccurateRip database
Copy OK
Track 12
Filename E:\EAC2\Cody Shuler - Cody Shuler (2015) [FLAC] {Rural Rhythm RUR-1131}\12 The Day Love Was Nailed To A Tree.wav
Pre-gap length 0:00:02.00
Peak level 97.2 %
Extraction speed 3.4 X
Track quality 100.0 %
Test CRC EAF48E58
Copy CRC EAF48E58
Track not present in AccurateRip database
Copy OK
None of the tracks are present in the AccurateRip database
No errors occurred
End of status report
---- CUETools DB Plugin V2.1.4
[CTDB TOCID: jR6TG39gkY7bgPsDX7hCyKgyHcQ-] disk not present in database
Submit result: jR6TG39gkY7bgPsDX7hCyKgyHcQ- has been uploaded
==== Log checksum 909B3CE25FDC5081A47BA1AC4679CCAE1472C4F08242D65A3B767E68019415C9 ====
Содержание индексной карты (.CUE)
REM DISCID 8B0A040C
REM COMMENT "ExactAudioCopy v1.0b4"
PERFORMER "Cody Shuler"
TITLE "Cody Shuler"
FILE "01 My Home Is On This Ole Boxcar.wav" WAVE
TRACK 01 AUDIO
TITLE "My Home Is On This Ole Boxcar"
PERFORMER "Cody Shuler"
ISRC USFWP1500001
FLAGS DCP
INDEX 01 00:00:00
TRACK 02 AUDIO
TITLE "The Beautiful Hills"
PERFORMER "Cody Shuler"
ISRC USFWP1500002
FLAGS DCP
INDEX 00 04:28:57
FILE "02 The Beautiful Hills.wav" WAVE
INDEX 01 00:00:00
TRACK 03 AUDIO
TITLE "Do You Wrong Kind of Girl"
PERFORMER "Cody Shuler"
ISRC USFWP1500003
FLAGS DCP
INDEX 00 03:04:55
FILE "03 Do You Wrong Kind of Girl.wav" WAVE
INDEX 01 00:00:00
TRACK 04 AUDIO
TITLE "Listen To The Hammer Ring"
PERFORMER "Cody Shuler"
ISRC USFWP1500004
FLAGS DCP
INDEX 00 02:29:40
FILE "04 Listen To The Hammer Ring.wav" WAVE
INDEX 01 00:00:00
TRACK 05 AUDIO
TITLE "The One That I Love Is Gone"
PERFORMER "Cody Shuler"
ISRC USFWP1500005
FLAGS DCP
INDEX 00 03:45:21
FILE "05 The One That I Love Is Gone.wav" WAVE
INDEX 01 00:00:00
TRACK 06 AUDIO
TITLE "When The Bonnets Were In Bloom"
PERFORMER "Cody Shuler"
ISRC USFWP1500006
FLAGS DCP
INDEX 00 03:11:01
FILE "06 When The Bonnets Were In Bloom.wav" WAVE
INDEX 01 00:00:00
TRACK 07 AUDIO
TITLE "Three Rivers Rambler"
PERFORMER "Cody Shuler"
ISRC USFWP1500007
FLAGS DCP
INDEX 00 03:12:32
FILE "07 Three Rivers Rambler.wav" WAVE
INDEX 01 00:00:00
TRACK 08 AUDIO
TITLE "Goodbye, My Love, Goodbye"
PERFORMER "Cody Shuler"
ISRC USFWP1500008
FLAGS DCP
INDEX 00 04:48:05
FILE "08 Goodbye, My Love, Goodbye.wav" WAVE
INDEX 01 00:00:00
TRACK 09 AUDIO
TITLE "Sea of Galilee"
PERFORMER "Cody Shuler"
ISRC USFWP1500009
FLAGS DCP
INDEX 00 02:50:31
FILE "09 Sea of Galilee.wav" WAVE
INDEX 01 00:00:00
TRACK 10 AUDIO
TITLE "Love Me Too"
PERFORMER "Cody Shuler"
ISRC USFWP1500010
FLAGS DCP
INDEX 00 04:01:48
FILE "10 Love Me Too.wav" WAVE
INDEX 01 00:00:00
TRACK 11 AUDIO
TITLE "Bryson Station"
PERFORMER "Cody Shuler"
ISRC USFWP1500011
FLAGS DCP
INDEX 00 02:53:56
FILE "11 Bryson Station.wav" WAVE
INDEX 01 00:00:00
TRACK 12 AUDIO
TITLE "The Day Love Was Nailed To A Tree"
PERFORMER "Cody Shuler"
ISRC USFWP1500012
FLAGS DCP
INDEX 00 03:31:14
FILE "12 The Day Love Was Nailed To A Tree.wav" WAVE
INDEX 01 00:00:00
INDEX 02 04:03:59

Особая благодарность mandof5 за составление релиза
[Профиль] [ЛС]
Показать сообщения:    
Ответить на тему

Текущее время: Сегодня 12:30

Часовой пояс: GMT + 3



Вы не можете начинать темы
Вы не можете отвечать на сообщения
Вы не можете редактировать свои сообщения
Вы не можете удалять свои сообщения
Вы не можете голосовать в опросах
Вы не можете прикреплять файлы к сообщениям
Вы не можете скачивать файлы