(Classical) Haydn - Sinfonia concertante • Mozart - Oboe & Bassoon Concertos - Илья Грингольц (Ilya Gringolts), Nicolas Altstaedt, Alfredo Bernardini, Peter Whelan, Arcangelo, Jonathan Cohen - 2015, FLAC (image+.cue) lossless

Ответить на тему
 
Автор Сообщение

vinter333 ®

Стаж: 3 года 1 месяц

Сообщений: 2

Пост 11-Янв-2017 00:50

[Цитировать]

Haydn - Sinfonia concertante • Mozart - Oboe & Bassoon Concertos
Жанр: Classical
Страна-производитель диска: UK
Год издания диска: 2015
Издатель (лейбл): Hyperion
Номер по каталогу: CDA68090
Дата записи: 2012-2014
Аудиокодек: FLAC
Тип рипа: image+.cue
Битрейт аудио: lossless
Продолжительность: 57:44
Источник: собственный рип
Наличие сканов в содержимом раздачи: да
Треклист:
Joseph Haydn
[1]-[3] Sinfonia concertante in B flat major, Hob.I:105
Ilya Gringolts violin
Nicolas Altstaedt cello
Alfredo Bernardini oboe
Peter Whelan bassoon
Wolfgang Amadeus Mozart
[4]-[6] Oboe Concerto in C major, K314/271k
Alfredo Bernardini oboe
[7]-[9] Bassoon Concerto in B flat major, K.191/186e
Peter Whelan bassoon
Исполнители:
Ilya Gringolts violin
Nicolas Altstaedt cello
Alfredo Bernardini oboe
Peter Whelan bassoon
Arcangelo
Jonathan Cohen
conductor
Лог создания рипа
Exact Audio Copy V1.1 from 23. June 2015
EAC extraction logfile from 14. January 2016, 2:07
Arcangelo, Jonathan Cohen / Haydn - Sinfonia Concertante; Mozart - Oboe & Bassoon Concertos
Used drive : HL-DT-STDVDRAM GU70N Adapter: 1 ID: 0
Read mode : Secure
Utilize accurate stream : Yes
Defeat audio cache : Yes
Make use of C2 pointers : No
Read offset correction : 48
Overread into Lead-In and Lead-Out : No
Fill up missing offset samples with silence : Yes
Delete leading and trailing silent blocks : No
Null samples used in CRC calculations : Yes
Used interface : Native Win32 interface for Win NT & 2000
Used output format : User Defined Encoder
Selected bitrate : 128 kBit/s
Quality : High
Add ID3 tag : No
Command line compressor : C:\Program Files (x86)\Exact Audio Copy\Flac\flac.exe
Additional command line options : -V -8 -T "Date=%year%" -T "Genre=%genre%" %source%
TOC of the extracted CD
Track | Start | Length | Start sector | End sector
---------------------------------------------------------
1 | 0:00.00 | 9:24.55 | 0 | 42354
2 | 9:24.55 | 5:00.69 | 42355 | 64923
3 | 14:25.49 | 6:22.11 | 64924 | 93584
4 | 20:47.60 | 7:08.64 | 93585 | 125748
5 | 27:56.49 | 6:37.52 | 125749 | 155575
6 | 34:34.26 | 5:52.13 | 155576 | 181988
7 | 40:26.39 | 6:40.59 | 181989 | 212047
8 | 47:07.23 | 6:15.16 | 212048 | 240188
9 | 53:22.39 | 4:20.33 | 240189 | 259721
Range status and errors
Selected range
Filename C:\temp\CDA68090 - Haydn - Sinfonia concertante; Mozart - Concertos\Haydn - Sinfonia Concertante; Mozart - Oboe & Bassoon Concertos.wav
Peak level 99.2 %
Extraction speed 5.0 X
Range quality 100.0 %
Test CRC AA36C43B
Copy CRC AA36C43B
Copy OK
No errors occurred
AccurateRip summary
Track 1 accurately ripped (confidence 3) [349E2605] (AR v2)
Track 2 accurately ripped (confidence 3) [38F89424] (AR v2)
Track 3 accurately ripped (confidence 3) [3E6E1F61] (AR v2)
Track 4 accurately ripped (confidence 3) [A85F7E9F] (AR v2)
Track 5 accurately ripped (confidence 3) [1D992B95] (AR v2)
Track 6 accurately ripped (confidence 3) [7F4E4E00] (AR v2)
Track 7 accurately ripped (confidence 3) [1CD6EE34] (AR v2)
Track 8 accurately ripped (confidence 3) [B22B645D] (AR v2)
Track 9 accurately ripped (confidence 3) [089AC059] (AR v2)
All tracks accurately ripped
End of status report
==== Log checksum C7C87A4CCCC39DBB942804CF89BF656F9587CAFD5136FBCD397DB0AB8CE58663 ====

Особая благодарность A-Z за составление релиза
[Профиль] [ЛС]
Показать сообщения:    
Ответить на тему

Текущее время: Сегодня 08:47

Часовой пояс: GMT + 3



Вы не можете начинать темы
Вы не можете отвечать на сообщения
Вы не можете редактировать свои сообщения
Вы не можете удалять свои сообщения
Вы не можете голосовать в опросах
Вы не можете прикреплять файлы к сообщениям
Вы не можете скачивать файлы