(Bluegrass) [CD] The Reno Brothers - Drawing From The Well - 1996, FLAC (tracks+.cue), lossless

Ответить на тему
 
Автор Сообщение

Astra96 ®

Стаж: 7 лет 1 месяц

Сообщений: 1

Пост 10-Янв-2017 11:00

[Цитировать]

The Reno Brothers / Drawing From The Well
[img=right]https://images-na.ssl-images-amazon.com/images/I/41uDwCqz1QL.jpg[/img]
Жанр: Bluegrass
Носитель: CD
Год издания: 1996
Издатель (лейбл): Webco Records
Номер по каталогу: WEB 0153 CD
Аудиокодек: FLAC (*.flac)
Тип рипа: tracks+.cue
Битрейт аудио: lossless
Продолжительность: 00:38:43
Источник (релизер): Private collection
Наличие сканов в содержимом раздачи: нет
Треклист:
01 Cruel Love
02 No Longer A Sweetheart Of Mine
03 Unwanted Love
04 Please Remember That I Love You
05 Banjo Riff
06 There's Another Baby
07 A Pretty Wreath For Mother's Grave
08 Maybe You Will Change Your Mind
09 Talk Of The Town
10 Trail Of Sorrow
11 Charlotte Breakdown
12 I'm Using My Bible For A Roadmap
Лог создания рипа
Exact Audio Copy V1.0 beta 3 from 29. August 2011
EAC extraction logfile from 8. August 2012, 16:55
Reno Brothers / Drawing from the Well
Used drive : HP DVD Writer 1040r Adapter: 0 ID: 1
Read mode : Secure
Utilize accurate stream : Yes
Defeat audio cache : Yes
Make use of C2 pointers : No
Read offset correction : 6
Overread into Lead-In and Lead-Out : No
Fill up missing offset samples with silence : Yes
Delete leading and trailing silent blocks : No
Null samples used in CRC calculations : Yes
Used interface : Native Win32 interface for Win NT & 2000
Gap handling : Appended to previous track
Used output format : User Defined Encoder
Selected bitrate : 1024 kBit/s
Quality : High
Add ID3 tag : No
Command line compressor : C:\Program Files\Exact Audio Copy\Flac\flac.exe
Additional command line options : -8 -V -T "ARTIST=%artist%" -T "TITLE=%title%" -T "ALBUM=%albumtitle%" -T "DATE=%year%" -T "TRACKNUMBER=%tracknr%" -T "GENRE=%genre%" -T "PERFORMER=%albuminterpret%" -T "COMPOSER=%composer%" %haslyrics%--tag-from-file=LYRICS="%lyricsfile%"%haslyrics% -T "ALBUMARTIST=%albumartist%" -T "DISCNUMBER=%cdnumber%" -T "TOTALDISCS=%totalcds%" -T "TOTALTRACKS=%numtracks%" -T "COMMENT=%comment%" %source% -o %dest%
TOC of the extracted CD
Track | Start | Length | Start sector | End sector
---------------------------------------------------------
1 | 0:00.00 | 2:55.45 | 0 | 13169
2 | 2:55.45 | 2:47.32 | 13170 | 25726
3 | 5:43.02 | 2:51.33 | 25727 | 38584
4 | 8:34.35 | 4:01.60 | 38585 | 56719
5 | 12:36.20 | 3:45.02 | 56720 | 73596
6 | 16:21.22 | 2:47.25 | 73597 | 86146
7 | 19:08.47 | 3:51.38 | 86147 | 103509
8 | 23:00.10 | 3:03.00 | 103510 | 117234
9 | 26:03.10 | 4:05.60 | 117235 | 135669
10 | 30:08.70 | 2:58.27 | 135670 | 149046
11 | 33:07.22 | 2:29.43 | 149047 | 160264
12 | 35:36.65 | 3:06.05 | 160265 | 174219
Track 1
Filename C:\Program Files\Exact Audio Copy\The Reno Brothers - Drawing From The Well (1996) [FLAC] {Pinecastle WEB 0153}\01 Cruel Love.wav
Pre-gap length 0:00:02.00
Peak level 98.7 %
Extraction speed 1.5 X
Track quality 99.9 %
Test CRC 6350B42C
Copy CRC 6350B42C
Track not present in AccurateRip database
Copy OK
Track 2
Filename C:\Program Files\Exact Audio Copy\The Reno Brothers - Drawing From The Well (1996) [FLAC] {Pinecastle WEB 0153}\02 No Longer A Sweetheart Of Mine.wav
Peak level 90.4 %
Extraction speed 1.8 X
Track quality 100.0 %
Test CRC A8B6D117
Copy CRC A8B6D117
Track not present in AccurateRip database
Copy OK
Track 3
Filename C:\Program Files\Exact Audio Copy\The Reno Brothers - Drawing From The Well (1996) [FLAC] {Pinecastle WEB 0153}\03 Unwanted love.wav
Peak level 99.3 %
Extraction speed 1.9 X
Track quality 100.0 %
Test CRC 71E87343
Copy CRC 71E87343
Track not present in AccurateRip database
Copy OK
Track 4
Filename C:\Program Files\Exact Audio Copy\The Reno Brothers - Drawing From The Well (1996) [FLAC] {Pinecastle WEB 0153}\04 Please Remember That I Love You.wav
Peak level 97.8 %
Extraction speed 2.2 X
Track quality 100.0 %
Test CRC 2DFCF640
Copy CRC 2DFCF640
Track not present in AccurateRip database
Copy OK
Track 5
Filename C:\Program Files\Exact Audio Copy\The Reno Brothers - Drawing From The Well (1996) [FLAC] {Pinecastle WEB 0153}\05 Banjo Riff.wav
Peak level 98.8 %
Extraction speed 2.3 X
Track quality 100.0 %
Test CRC 720645E1
Copy CRC 720645E1
Track not present in AccurateRip database
Copy OK
Track 6
Filename C:\Program Files\Exact Audio Copy\The Reno Brothers - Drawing From The Well (1996) [FLAC] {Pinecastle WEB 0153}\06 There's Another Baby.wav
Peak level 99.7 %
Extraction speed 1.9 X
Track quality 99.9 %
Test CRC 6B3F96FE
Copy CRC 6B3F96FE
Track not present in AccurateRip database
Copy OK
Track 7
Filename C:\Program Files\Exact Audio Copy\The Reno Brothers - Drawing From The Well (1996) [FLAC] {Pinecastle WEB 0153}\07 A Pretty Wreath For Mother's Grave.wav
Peak level 100.0 %
Extraction speed 2.6 X
Track quality 100.0 %
Test CRC 264FAF09
Copy CRC 264FAF09
Track not present in AccurateRip database
Copy OK
Track 8
Filename C:\Program Files\Exact Audio Copy\The Reno Brothers - Drawing From The Well (1996) [FLAC] {Pinecastle WEB 0153}\08 Maybe You Will Change Your Mind.wav
Pre-gap length 0:00:01.10
Peak level 94.4 %
Extraction speed 2.6 X
Track quality 100.0 %
Test CRC 7EFCE502
Copy CRC 7EFCE502
Track not present in AccurateRip database
Copy OK
Track 9
Filename C:\Program Files\Exact Audio Copy\The Reno Brothers - Drawing From The Well (1996) [FLAC] {Pinecastle WEB 0153}\09 Talk Of The Town.wav
Peak level 98.4 %
Extraction speed 2.9 X
Track quality 100.0 %
Test CRC 9EF59DC8
Copy CRC 9EF59DC8
Track not present in AccurateRip database
Copy OK
Track 10
Filename C:\Program Files\Exact Audio Copy\The Reno Brothers - Drawing From The Well (1996) [FLAC] {Pinecastle WEB 0153}\10 Trail Of Sorrow.wav
Peak level 99.3 %
Extraction speed 2.8 X
Track quality 100.0 %
Test CRC D283948F
Copy CRC D283948F
Track not present in AccurateRip database
Copy OK
Track 11
Filename C:\Program Files\Exact Audio Copy\The Reno Brothers - Drawing From The Well (1996) [FLAC] {Pinecastle WEB 0153}\11 Charlotte Breakdown.wav
Peak level 100.0 %
Extraction speed 2.8 X
Track quality 100.0 %
Test CRC E623F5ED
Copy CRC E623F5ED
Track not present in AccurateRip database
Copy OK
Track 12
Filename C:\Program Files\Exact Audio Copy\The Reno Brothers - Drawing From The Well (1996) [FLAC] {Pinecastle WEB 0153}\12 I'm Using My Bible For A Roadmap.wav
Peak level 98.2 %
Extraction speed 3.0 X
Track quality 100.0 %
Test CRC CFBAC3A8
Copy CRC CFBAC3A8
Track not present in AccurateRip database
Copy OK
None of the tracks are present in the AccurateRip database
No errors occurred
End of status report
---- CUETools DB Plugin V2.1.3
[CTDB TOCID: WuHRW4D0M.hQsxjVugU7JKumknw-] disk not present in database, Submit result: WuHRW4D0M.hQsxjVugU7JKumknw- has been uploaded
==== Log checksum D0E8DBBA49999B50077A38D6DF9EC926F8CA327C73D2BD70451D1778E07ED7FC ====
Содержание индексной карты (.CUE)
REM GENRE Other
REM DISCID AA09120C
REM COMMENT "ExactAudioCopy v1.0b3"
CATALOG 0000000000000
PERFORMER "Reno Brothers"
TITLE "Drawing from the Well"
FILE "01 Cruel Love.wav" WAVE
TRACK 01 AUDIO
TITLE "Cruel Love"
PERFORMER "Reno Brothers"
INDEX 01 00:00:00
FILE "02 No Longer A Sweetheart Of Mine.wav" WAVE
TRACK 02 AUDIO
TITLE "No Longer A Sweetheart Of Mine"
PERFORMER "Reno Brothers"
INDEX 01 00:00:00
FILE "03 Unwanted love.wav" WAVE
TRACK 03 AUDIO
TITLE "Unwanted love"
PERFORMER "Reno Brothers"
INDEX 01 00:00:00
FILE "04 Please Remember That I Love You.wav" WAVE
TRACK 04 AUDIO
TITLE "Please Remember That I Love You"
PERFORMER "Reno Brothers"
INDEX 01 00:00:00
FILE "05 Banjo Riff.wav" WAVE
TRACK 05 AUDIO
TITLE "Banjo Riff"
PERFORMER "Reno Brothers"
INDEX 01 00:00:00
FILE "06 There's Another Baby.wav" WAVE
TRACK 06 AUDIO
TITLE "There's Another Baby"
PERFORMER "Reno Brothers"
INDEX 01 00:00:00
FILE "07 A Pretty Wreath For Mother's Grave.wav" WAVE
TRACK 07 AUDIO
TITLE "A Pretty Wreath For Mother's Grave"
PERFORMER "Reno Brothers"
INDEX 01 00:00:00
TRACK 08 AUDIO
TITLE "Maybe You Will Change Your Mind"
PERFORMER "Reno Brothers"
INDEX 00 03:50:30
FILE "08 Maybe You Will Change Your Mind.wav" WAVE
INDEX 01 00:00:00
FILE "09 Talk Of The Town.wav" WAVE
TRACK 09 AUDIO
TITLE "Talk Of The Town"
PERFORMER "Reno Brothers"
INDEX 01 00:00:00
FILE "10 Trail Of Sorrow.wav" WAVE
TRACK 10 AUDIO
TITLE "Trail Of Sorrow"
PERFORMER "Reno Brothers"
INDEX 01 00:00:00
FILE "11 Charlotte Breakdown.wav" WAVE
TRACK 11 AUDIO
TITLE "Charlotte Breakdown"
PERFORMER "Reno Brothers"
INDEX 01 00:00:00
FILE "12 I'm Using My Bible For A Roadmap.wav" WAVE
TRACK 12 AUDIO
TITLE "I'm Using My Bible For A Roadmap"
PERFORMER "Reno Brothers"
INDEX 01 00:00:00

Особая благодарность mandof5 за составление релиза
[Профиль] [ЛС]
Показать сообщения:    
Ответить на тему

Текущее время: Сегодня 18:15

Часовой пояс: GMT + 3



Вы не можете начинать темы
Вы не можете отвечать на сообщения
Вы не можете редактировать свои сообщения
Вы не можете удалять свои сообщения
Вы не можете голосовать в опросах
Вы не можете прикреплять файлы к сообщениям
Вы не можете скачивать файлы