(Bluegrass) [CD] David Grisman - Happy Birthday Bill Monroe - 2011, FLAC (tracks+.cue), lossless

Ответить на тему
 
Автор Сообщение

Deus24 ®

Стаж: 3 года 5 месяцев

Сообщений: 2

Пост 10-Янв-2017 02:25

[Цитировать]

David Grisman / Happy Birthday Bill Monroe
Жанр: Bluegrass
Носитель: CD
Год издания: 2011
Издатель (лейбл): Acoustic Disc
Номер по каталогу: AD-77
Аудиокодек: FLAC (*.flac)
Тип рипа: tracks+.cue
Битрейт аудио: lossless
Продолжительность: 01:19:52
Источник (релизер): can't recall
Наличие сканов в содержимом раздачи: нет
Треклист:
01 - New Muleskinner Blues (Jimmy Rodgers)
02 - Happy Birthday Bill Monroe (David Grisman) Sample
03 - Uncle Pen (Bill Monroe)
04 - I'm Rollin' On* (traditional)
05 - Kentucky Waltz* (Bill Monroe)
06 - On & On* (Bill Monroe)
07 - Watson Blues (Bill Monroe)
08 - My Little Georgia Rose* (Bill Monroe)
09 - Wayfaring Stranger (traditional)
10 - In the Pines* (Bill Monroe)
11 - Roanoke (Bill Monroe)
12 - Wicked Path of Sin (Bill Monroe)
13 - Bluegrass Stomp* (Bill Monroe)
14 - Letter from My Darlin' (Bill Monroe)
15 - B Natural (Grisman-McCoury)
16 - Bury Me Beneath the Willow (traditional
17 - Lonesome Moonlight Waltz (Bill Monroe)
18 - John Henry* (traditional)
19 - Rawhide* (Bill Monroe)
20 - My Last Days on Earth* (Bill Monroe)
21 - Ralph Rinzler Interviews Bill Monroe*
Лог создания рипа
Exact Audio Copy V1.0 beta 3 from 29. August 2011
EAC extraction logfile from 29. August 2012, 21:31
David Grisman / Dawg Plays Bill Monroe
Used drive : HP DVD Writer 1040r Adapter: 0 ID: 1
Read mode : Secure
Utilize accurate stream : Yes
Defeat audio cache : Yes
Make use of C2 pointers : No
Read offset correction : 6
Overread into Lead-In and Lead-Out : No
Fill up missing offset samples with silence : Yes
Delete leading and trailing silent blocks : No
Null samples used in CRC calculations : Yes
Used interface : Native Win32 interface for Win NT & 2000
Gap handling : Appended to previous track
Used output format : User Defined Encoder
Selected bitrate : 1024 kBit/s
Quality : High
Add ID3 tag : No
Command line compressor : C:\Program Files\Exact Audio Copy\Flac\flac.exe
Additional command line options : -8 -V -T "ARTIST=%artist%" -T "TITLE=%title%" -T "ALBUM=%albumtitle%" -T "DATE=%year%" -T "TRACKNUMBER=%tracknr%" -T "GENRE=%genre%" -T "PERFORMER=%albuminterpret%" -T "COMPOSER=%composer%" %haslyrics%--tag-from-file=LYRICS="%lyricsfile%"%haslyrics% -T "ALBUMARTIST=%albumartist%" -T "DISCNUMBER=%cdnumber%" -T "TOTALDISCS=%totalcds%" -T "TOTALTRACKS=%numtracks%" -T "COMMENT=%comment%" %source% -o %dest%
TOC of the extracted CD
Track | Start | Length | Start sector | End sector
---------------------------------------------------------
1 | 0:00.00 | 1:33.11 | 0 | 6985
2 | 1:33.11 | 3:31.26 | 6986 | 22836
3 | 5:04.37 | 3:01.26 | 22837 | 36437
4 | 8:05.63 | 2:53.39 | 36438 | 49451
5 | 10:59.27 | 3:28.19 | 49452 | 65070
6 | 14:27.46 | 3:33.13 | 65071 | 81058
7 | 18:00.59 | 3:31.50 | 81059 | 96933
8 | 21:32.34 | 3:09.30 | 96934 | 111138
9 | 24:41.64 | 1:29.16 | 111139 | 117829
10 | 26:11.05 | 5:34.57 | 117830 | 142936
11 | 31:45.62 | 2:48.25 | 142937 | 155561
12 | 34:34.12 | 2:18.30 | 155562 | 165941
13 | 36:52.42 | 5:20.39 | 165942 | 189980
14 | 42:13.06 | 3:24.18 | 189981 | 205298
15 | 45:37.24 | 2:34.48 | 205299 | 216896
16 | 48:11.72 | 4:21.41 | 216897 | 236512
17 | 52:33.38 | 3:33.41 | 236513 | 252528
18 | 56:07.04 | 3:00.66 | 252529 | 266094
19 | 59:07.70 | 3:00.58 | 266095 | 279652
20 | 62:08.53 | 6:08.31 | 279653 | 307283
21 | 68:17.09 | 11:34.70 | 307284 | 359403
Track 1
Filename C:\Program Files\Exact Audio Copy\David Grisman - Happy Birthday Bill Monroe (2011) [FLAC] [Acoustic Disc - ACD-77}\01 New Muleskinner Blues.wav
Pre-gap length 0:00:02.00
Peak level 79.1 %
Extraction speed 1.6 X
Track quality 100.0 %
Test CRC 40B76D6B
Copy CRC 40B76D6B
Track not present in AccurateRip database
Copy OK
Track 2
Filename C:\Program Files\Exact Audio Copy\David Grisman - Happy Birthday Bill Monroe (2011) [FLAC] [Acoustic Disc - ACD-77}\02 Happy Birthday Bill Monroe.wav
Peak level 100.0 %
Extraction speed 2.0 X
Track quality 100.0 %
Test CRC 6D070485
Copy CRC 6D070485
Track not present in AccurateRip database
Copy OK
Track 3
Filename C:\Program Files\Exact Audio Copy\David Grisman - Happy Birthday Bill Monroe (2011) [FLAC] [Acoustic Disc - ACD-77}\03 Uncle Pen.wav
Peak level 85.9 %
Extraction speed 2.1 X
Track quality 100.0 %
Test CRC EF8BDF51
Copy CRC EF8BDF51
Track not present in AccurateRip database
Copy OK
Track 4
Filename C:\Program Files\Exact Audio Copy\David Grisman - Happy Birthday Bill Monroe (2011) [FLAC] [Acoustic Disc - ACD-77}\04 I'm Rollin' On.wav
Peak level 100.0 %
Extraction speed 2.2 X
Track quality 100.0 %
Test CRC 72392ED3
Copy CRC 72392ED3
Track not present in AccurateRip database
Copy OK
Track 5
Filename C:\Program Files\Exact Audio Copy\David Grisman - Happy Birthday Bill Monroe (2011) [FLAC] [Acoustic Disc - ACD-77}\05 Kentucky Waltz.wav
Peak level 72.6 %
Extraction speed 2.4 X
Track quality 100.0 %
Test CRC 33524FAA
Copy CRC 33524FAA
Track not present in AccurateRip database
Copy OK
Track 6
Filename C:\Program Files\Exact Audio Copy\David Grisman - Happy Birthday Bill Monroe (2011) [FLAC] [Acoustic Disc - ACD-77}\06 On & On.wav
Peak level 100.0 %
Extraction speed 2.6 X
Track quality 100.0 %
Test CRC 632C4824
Copy CRC 632C4824
Track not present in AccurateRip database
Copy OK
Track 7
Filename C:\Program Files\Exact Audio Copy\David Grisman - Happy Birthday Bill Monroe (2011) [FLAC] [Acoustic Disc - ACD-77}\07 Watson Blues.wav
Peak level 100.0 %
Extraction speed 2.7 X
Track quality 100.0 %
Test CRC 33147870
Copy CRC 33147870
Track not present in AccurateRip database
Copy OK
Track 8
Filename C:\Program Files\Exact Audio Copy\David Grisman - Happy Birthday Bill Monroe (2011) [FLAC] [Acoustic Disc - ACD-77}\08 My Little Georgia Rose.wav
Peak level 100.0 %
Extraction speed 2.8 X
Track quality 100.0 %
Test CRC B04175B9
Copy CRC B04175B9
Track not present in AccurateRip database
Copy OK
Track 9
Filename C:\Program Files\Exact Audio Copy\David Grisman - Happy Birthday Bill Monroe (2011) [FLAC] [Acoustic Disc - ACD-77}\09 Wayfaring Stranger.wav
Pre-gap length 0:00:00.01
Peak level 100.0 %
Extraction speed 2.4 X
Track quality 100.0 %
Test CRC E91050B7
Copy CRC E91050B7
Track not present in AccurateRip database
Copy OK
Track 10
Filename C:\Program Files\Exact Audio Copy\David Grisman - Happy Birthday Bill Monroe (2011) [FLAC] [Acoustic Disc - ACD-77}\10 In The Pines.wav
Peak level 100.0 %
Extraction speed 3.2 X
Track quality 100.0 %
Test CRC 468D98D3
Copy CRC 468D98D3
Track not present in AccurateRip database
Copy OK
Track 11
Filename C:\Program Files\Exact Audio Copy\David Grisman - Happy Birthday Bill Monroe (2011) [FLAC] [Acoustic Disc - ACD-77}\11 Roanoke.wav
Peak level 100.0 %
Extraction speed 2.2 X
Track quality 99.9 %
Test CRC BADCC46F
Copy CRC BADCC46F
Track not present in AccurateRip database
Copy OK
Track 12
Filename C:\Program Files\Exact Audio Copy\David Grisman - Happy Birthday Bill Monroe (2011) [FLAC] [Acoustic Disc - ACD-77}\12 Wicked Path Of Sin.wav
Peak level 100.0 %
Extraction speed 3.0 X
Track quality 100.0 %
Test CRC 50A41333
Copy CRC 50A41333
Track not present in AccurateRip database
Copy OK
Track 13
Filename C:\Program Files\Exact Audio Copy\David Grisman - Happy Birthday Bill Monroe (2011) [FLAC] [Acoustic Disc - ACD-77}\13 Bluegrass Stomp.wav
Peak level 76.8 %
Extraction speed 3.5 X
Track quality 100.0 %
Test CRC 2F620F07
Copy CRC 2F620F07
Track not present in AccurateRip database
Copy OK
Track 14
Filename C:\Program Files\Exact Audio Copy\David Grisman - Happy Birthday Bill Monroe (2011) [FLAC] [Acoustic Disc - ACD-77}\14 Letter From My Darlin'.wav
Peak level 100.0 %
Extraction speed 3.4 X
Track quality 100.0 %
Test CRC 497A95F2
Copy CRC 497A95F2
Track not present in AccurateRip database
Copy OK
Track 15
Filename C:\Program Files\Exact Audio Copy\David Grisman - Happy Birthday Bill Monroe (2011) [FLAC] [Acoustic Disc - ACD-77}\15 B Natural.wav
Peak level 100.0 %
Extraction speed 3.3 X
Track quality 100.0 %
Test CRC C8139416
Copy CRC C8139416
Track not present in AccurateRip database
Copy OK
Track 16
Filename C:\Program Files\Exact Audio Copy\David Grisman - Happy Birthday Bill Monroe (2011) [FLAC] [Acoustic Disc - ACD-77}\16 Bury Me Beneath The Willow.wav
Peak level 93.2 %
Extraction speed 3.7 X
Track quality 100.0 %
Test CRC F167B0AC
Copy CRC F167B0AC
Track not present in AccurateRip database
Copy OK
Track 17
Filename C:\Program Files\Exact Audio Copy\David Grisman - Happy Birthday Bill Monroe (2011) [FLAC] [Acoustic Disc - ACD-77}\17 Lonesome Moonlight Waltz.wav
Peak level 100.0 %
Extraction speed 3.7 X
Track quality 100.0 %
Test CRC 162B62D3
Copy CRC 162B62D3
Track not present in AccurateRip database
Copy OK
Track 18
Filename C:\Program Files\Exact Audio Copy\David Grisman - Happy Birthday Bill Monroe (2011) [FLAC] [Acoustic Disc - ACD-77}\18 John Henry.wav
Peak level 100.0 %
Extraction speed 3.7 X
Track quality 100.0 %
Test CRC F28EFBE0
Copy CRC F28EFBE0
Track not present in AccurateRip database
Copy OK
Track 19
Filename C:\Program Files\Exact Audio Copy\David Grisman - Happy Birthday Bill Monroe (2011) [FLAC] [Acoustic Disc - ACD-77}\19 Rawhide.wav
Peak level 100.0 %
Extraction speed 3.8 X
Track quality 100.0 %
Test CRC EF2D2B82
Copy CRC EF2D2B82
Track not present in AccurateRip database
Copy OK
Track 20
Filename C:\Program Files\Exact Audio Copy\David Grisman - Happy Birthday Bill Monroe (2011) [FLAC] [Acoustic Disc - ACD-77}\20 My Last Days On Earth.wav
Peak level 100.0 %
Extraction speed 4.3 X
Track quality 100.0 %
Test CRC 4C3DD31B
Copy CRC 4C3DD31B
Track not present in AccurateRip database
Copy OK
Track 21
Filename C:\Program Files\Exact Audio Copy\David Grisman - Happy Birthday Bill Monroe (2011) [FLAC] [Acoustic Disc - ACD-77}\21 Ralph Rinzler Interview.wav
Peak level 100.0 %
Extraction speed 4.7 X
Track quality 100.0 %
Test CRC 99E149FA
Copy CRC 99E149FA
Track not present in AccurateRip database
Copy OK
None of the tracks are present in the AccurateRip database
No errors occurred
End of status report
---- CUETools DB Plugin V2.1.3
[CTDB TOCID: qrL4IZuwm.y6DBhOJeoDHPyFp5I-] disk not present in database, Submit result: qrL4IZuwm.y6DBhOJeoDHPyFp5I- has been uploaded
==== Log checksum 2323AE53CC318FF40110400FBA98012AEF44FBE9F1F1A56963D0543F50F90F05 ====
Содержание индексной карты (.CUE)
REM DISCID 4A12B815
REM COMMENT "ExactAudioCopy v1.0b3"
PERFORMER "David Grisman"
TITLE "Dawg Plays Bill Monroe"
FILE "01 New Muleskinner Blues.wav" WAVE
TRACK 01 AUDIO
TITLE "New Muleskinner Blues"
PERFORMER "David Grisman"
ISRC 000000000000
INDEX 01 00:00:00
FILE "02 Happy Birthday Bill Monroe.wav" WAVE
TRACK 02 AUDIO
TITLE "Happy Birthday Bill Monroe"
PERFORMER "David Grisman"
ISRC 000000000000
INDEX 01 00:00:00
FILE "03 Uncle Pen.wav" WAVE
TRACK 03 AUDIO
TITLE "Uncle Pen"
PERFORMER "David Grisman"
ISRC 000000000000
INDEX 01 00:00:00
FILE "04 I'm Rollin' On.wav" WAVE
TRACK 04 AUDIO
TITLE "I'm Rollin' On"
PERFORMER "David Grisman"
ISRC 000000000000
INDEX 01 00:00:00
FILE "05 Kentucky Waltz.wav" WAVE
TRACK 05 AUDIO
TITLE "Kentucky Waltz"
PERFORMER "David Grisman"
ISRC 000000000000
INDEX 01 00:00:00
FILE "06 On & On.wav" WAVE
TRACK 06 AUDIO
TITLE "On & On"
PERFORMER "David Grisman"
ISRC 000000000000
INDEX 01 00:00:00
FILE "07 Watson Blues.wav" WAVE
TRACK 07 AUDIO
TITLE "Watson Blues"
PERFORMER "David Grisman"
ISRC 000000000000
INDEX 01 00:00:00
FILE "08 My Little Georgia Rose.wav" WAVE
TRACK 08 AUDIO
TITLE "My Little Georgia Rose"
PERFORMER "David Grisman"
ISRC 000000000000
INDEX 01 00:00:00
TRACK 09 AUDIO
TITLE "Wayfaring Stranger"
PERFORMER "David Grisman"
ISRC 000000000000
INDEX 00 03:09:29
FILE "09 Wayfaring Stranger.wav" WAVE
INDEX 01 00:00:00
FILE "10 In The Pines.wav" WAVE
TRACK 10 AUDIO
TITLE "In The Pines"
PERFORMER "David Grisman"
ISRC 000000000000
INDEX 01 00:00:00
FILE "11 Roanoke.wav" WAVE
TRACK 11 AUDIO
TITLE "Roanoke"
PERFORMER "David Grisman"
ISRC 000000000000
INDEX 01 00:00:00
FILE "12 Wicked Path Of Sin.wav" WAVE
TRACK 12 AUDIO
TITLE "Wicked Path Of Sin"
PERFORMER "David Grisman"
ISRC 000000000000
INDEX 01 00:00:00
FILE "13 Bluegrass Stomp.wav" WAVE
TRACK 13 AUDIO
TITLE "Bluegrass Stomp"
PERFORMER "David Grisman"
ISRC 000000000000
INDEX 01 00:00:00
FILE "14 Letter From My Darlin'.wav" WAVE
TRACK 14 AUDIO
TITLE "Letter From My Darlin'"
PERFORMER "David Grisman"
ISRC 000000000000
INDEX 01 00:00:00
FILE "15 B Natural.wav" WAVE
TRACK 15 AUDIO
TITLE "B Natural"
PERFORMER "David Grisman"
ISRC 000000000000
INDEX 01 00:00:00
FILE "16 Bury Me Beneath The Willow.wav" WAVE
TRACK 16 AUDIO
TITLE "Bury Me Beneath The Willow"
PERFORMER "David Grisman"
ISRC 000000000000
INDEX 01 00:00:00
FILE "17 Lonesome Moonlight Waltz.wav" WAVE
TRACK 17 AUDIO
TITLE "Lonesome Moonlight Waltz"
PERFORMER "David Grisman"
ISRC 000000000000
INDEX 01 00:00:00
FILE "18 John Henry.wav" WAVE
TRACK 18 AUDIO
TITLE "John Henry"
PERFORMER "David Grisman"
ISRC 000000000000
INDEX 01 00:00:00
FILE "19 Rawhide.wav" WAVE
TRACK 19 AUDIO
TITLE "Rawhide"
PERFORMER "David Grisman"
ISRC 000000000000
INDEX 01 00:00:00
FILE "20 My Last Days On Earth.wav" WAVE
TRACK 20 AUDIO
TITLE "My Last Days On Earth"
PERFORMER "David Grisman"
ISRC 000000000000
INDEX 01 00:00:00
FILE "21 Ralph Rinzler Interview.wav" WAVE
TRACK 21 AUDIO
TITLE "Ralph Rinzler Interview"
PERFORMER "David Grisman"
ISRC 000000000000
INDEX 01 00:00:00

Особая благодарность mandof5 за составление релиза
[Профиль] [ЛС]
Показать сообщения:    
Ответить на тему

Текущее время: Сегодня 10:18

Часовой пояс: GMT + 3



Вы не можете начинать темы
Вы не можете отвечать на сообщения
Вы не можете редактировать свои сообщения
Вы не можете удалять свои сообщения
Вы не можете голосовать в опросах
Вы не можете прикреплять файлы к сообщениям
Вы не можете скачивать файлы