(Bluegrass) [CD] Butch Baldassari - Old Town - 1990, FLAC (tracks+.cue), lossless

Ответить на тему
 
Автор Сообщение

sloumou ®

Стаж: 5 лет 2 месяца

Сообщений: 6

Пост 10-Янв-2017 02:25

[Цитировать]

Butch Baldassari / Old Town
Жанр: Bluegrass
Носитель: CD
Год издания: 1990
Издатель (лейбл): Rebel Records
Аудиокодек: FLAC (*.flac)
Тип рипа: tracks+.cue
Битрейт аудио: lossless
Продолжительность: 00:39:05
Источник (релизер): Private collection
Наличие сканов в содержимом раздачи: нет
Треклист:
1 Old Town
2 Boscoe's Boogie
3 Black Canyon
4 Honky Tonk Swing
5 Slocum Hollow
6 Kentucky Mandolin
7 Methodist Preacher
8 The Jackrabbit Trail
9 Rebecca
10 Paintin' The Barn
11 Maydelle's Reel
12 No Title Yet Blues
13 Waltz For Bill Monroe
Лог создания рипа
Exact Audio Copy V1.0 beta 3 from 29. August 2011
EAC extraction logfile from 17. October 2014, 20:52
Butch Baldassari / Old Town
Used drive : HL-DT-STBDDVDRW UH12LS28 Adapter: 4 ID: 0
Read mode : Burst
Read offset correction : 667
Overread into Lead-In and Lead-Out : No
Fill up missing offset samples with silence : Yes
Delete leading and trailing silent blocks : No
Null samples used in CRC calculations : Yes
Used interface : Native Win32 interface for Win NT & 2000
Gap handling : Appended to previous track
Used output format : User Defined Encoder
Selected bitrate : 1024 kBit/s
Quality : High
Add ID3 tag : No
Command line compressor : C:\Program Files (x86)\Exact Audio Copy\Flac\flac.exe
Additional command line options : -8 -V -T "ARTIST=%artist%" -T "TITLE=%title%" -T "ALBUM=%albumtitle%" -T "DATE=%year%" -T "TRACKNUMBER=%tracknr%" -T "GENRE=%genre%" -T "PERFORMER=%albuminterpret%" -T "COMPOSER=%composer%" %haslyrics%--tag-from-file=LYRICS="%lyricsfile%"%haslyrics% -T "ALBUMARTIST=%albumartist%" -T "DISCNUMBER=%cdnumber%" -T "TOTALDISCS=%totalcds%" -T "TOTALTRACKS=%numtracks%" -T "COMMENT=%comment%" %source% -o %dest%
TOC of the extracted CD
Track | Start | Length | Start sector | End sector
---------------------------------------------------------
1 | 0:00.50 | 2:24.17 | 50 | 10866
2 | 2:24.67 | 3:01.48 | 10867 | 24489
3 | 5:26.40 | 3:34.42 | 24490 | 40581
4 | 9:01.07 | 3:34.70 | 40582 | 56701
5 | 12:36.02 | 2:54.05 | 56702 | 69756
6 | 15:30.07 | 2:38.73 | 69757 | 81679
7 | 18:09.05 | 2:21.20 | 81680 | 92274
8 | 20:30.25 | 2:39.72 | 92275 | 104271
9 | 23:10.22 | 3:30.65 | 104272 | 120086
10 | 26:41.12 | 2:33.15 | 120087 | 131576
11 | 29:14.27 | 2:56.35 | 131577 | 144811
12 | 32:10.62 | 3:50.13 | 144812 | 162074
13 | 36:01.00 | 3:04.52 | 162075 | 175926
Track 1
Filename E:\EAC2\Butch Baldassari - Old Town (1990) [FLAC] {Rebel Records}\01 - Old Town.wav
Pre-gap length 0:00:02.66
Peak level 85.4 %
Extraction speed 18.1 X
Test CRC 29C4E9CF
Copy CRC 29C4E9CF
Accurately ripped (confidence 2) [496DBF3B] (AR v2)
Copy OK
Track 2
Filename E:\EAC2\Butch Baldassari - Old Town (1990) [FLAC] {Rebel Records}\02 - Boscoe's Boogie.wav
Pre-gap length 0:00:01.02
Peak level 69.6 %
Extraction speed 19.6 X
Test CRC 5DB443C4
Copy CRC 5DB443C4
Accurately ripped (confidence 2) [92E4FDB5] (AR v2)
Copy OK
Track 3
Filename E:\EAC2\Butch Baldassari - Old Town (1990) [FLAC] {Rebel Records}\03 - Black Canyon.wav
Pre-gap length 0:00:01.30
Peak level 72.5 %
Extraction speed 21.5 X
Test CRC F1700673
Copy CRC F1700673
Accurately ripped (confidence 2) [3108DC94] (AR v2)
Copy OK
Track 4
Filename E:\EAC2\Butch Baldassari - Old Town (1990) [FLAC] {Rebel Records}\04 - Honky Tonk Swing.wav
Pre-gap length 0:00:01.76
Peak level 63.7 %
Extraction speed 22.2 X
Test CRC 138512EF
Copy CRC 138512EF
Accurately ripped (confidence 2) [8D94FF2C] (AR v2)
Copy OK
Track 5
Filename E:\EAC2\Butch Baldassari - Old Town (1990) [FLAC] {Rebel Records}\05 - Slocum Hollow.wav
Pre-gap length 0:00:01.56
Peak level 70.3 %
Extraction speed 24.6 X
Test CRC 3A5F31CF
Copy CRC 3A5F31CF
Accurately ripped (confidence 2) [68D7FEB8] (AR v2)
Copy OK
Track 6
Filename E:\EAC2\Butch Baldassari - Old Town (1990) [FLAC] {Rebel Records}\06 - Kentucky Mandolin.wav
Pre-gap length 0:00:00.56
Peak level 78.8 %
Extraction speed 25.8 X
Test CRC 9DFFDB1D
Copy CRC 9DFFDB1D
Accurately ripped (confidence 2) [27611D8F] (AR v2)
Copy OK
Track 7
Filename E:\EAC2\Butch Baldassari - Old Town (1990) [FLAC] {Rebel Records}\07 - Methodist Preacher.wav
Pre-gap length 0:00:01.60
Peak level 69.1 %
Extraction speed 26.7 X
Test CRC 884712E9
Copy CRC 884712E9
Accurately ripped (confidence 2) [5E5B7BDD] (AR v2)
Copy OK
Track 8
Filename E:\EAC2\Butch Baldassari - Old Town (1990) [FLAC] {Rebel Records}\08 - The Jackrabbit Trail.wav
Pre-gap length 0:00:00.77
Peak level 53.2 %
Extraction speed 27.7 X
Test CRC 24AADEBB
Copy CRC 24AADEBB
Accurately ripped (confidence 2) [E89FB5AE] (AR v2)
Copy OK
Track 9
Filename E:\EAC2\Butch Baldassari - Old Town (1990) [FLAC] {Rebel Records}\09 - Rebecca.wav
Pre-gap length 0:00:00.36
Peak level 72.8 %
Extraction speed 29.0 X
Test CRC 70043FFD
Copy CRC 70043FFD
Accurately ripped (confidence 2) [D1319D62] (AR v2)
Copy OK
Track 10
Filename E:\EAC2\Butch Baldassari - Old Town (1990) [FLAC] {Rebel Records}\10 - Paintin' the Barn.wav
Pre-gap length 0:00:01.36
Peak level 89.7 %
Extraction speed 30.0 X
Test CRC F209512C
Copy CRC F209512C
Accurately ripped (confidence 2) [B00C8ACB] (AR v2)
Copy OK
Track 11
Filename E:\EAC2\Butch Baldassari - Old Town (1990) [FLAC] {Rebel Records}\11 - Maydelle's Reel.wav
Pre-gap length 0:00:01.16
Peak level 59.7 %
Extraction speed 31.0 X
Test CRC 4FF6E1AE
Copy CRC 4FF6E1AE
Accurately ripped (confidence 2) [E1413678] (AR v2)
Copy OK
Track 12
Filename E:\EAC2\Butch Baldassari - Old Town (1990) [FLAC] {Rebel Records}\12 - No Title Yet Blues.wav
Pre-gap length 0:00:01.62
Peak level 56.4 %
Extraction speed 32.3 X
Test CRC 0F19F39F
Copy CRC 0F19F39F
Accurately ripped (confidence 2) [84B01564] (AR v2)
Copy OK
Track 13
Filename E:\EAC2\Butch Baldassari - Old Town (1990) [FLAC] {Rebel Records}\13 - Waltz For Bill Monroe.wav
Pre-gap length 0:00:01.33
Peak level 39.5 %
Extraction speed 33.2 X
Test CRC 5240EC84
Copy CRC 5240EC84
Accurately ripped (confidence 2) [391D6596] (AR v2)
Copy OK
All tracks accurately ripped
No errors occurred
End of status report
==== Log checksum 018A245E718EC09900ED56D7D1D2D27D1B0EAEF528A050DBF49EE519CD8A3339 ====
Содержание индексной карты (.CUE)
REM GENRE Country
REM DISCID A209290D
REM COMMENT "ExactAudioCopy v1.0b3"
PERFORMER "Butch Baldassari"
TITLE "Old Town"
FILE "01 - Old Town.wav" WAVE
TRACK 01 AUDIO
TITLE "Old Town"
PERFORMER "Butch Baldassari"
PREGAP 00:00:50
INDEX 01 00:00:00
TRACK 02 AUDIO
TITLE "Boscoe's Boogie"
PERFORMER "Butch Baldassari"
INDEX 00 02:23:15
FILE "02 - Boscoe's Boogie.wav" WAVE
INDEX 01 00:00:00
TRACK 03 AUDIO
TITLE "Black Canyon"
PERFORMER "Butch Baldassari"
INDEX 00 03:00:25
FILE "03 - Black Canyon.wav" WAVE
INDEX 01 00:00:00
TRACK 04 AUDIO
TITLE "Honky Tonk Swing"
PERFORMER "Butch Baldassari"
INDEX 00 03:32:60
FILE "04 - Honky Tonk Swing.wav" WAVE
INDEX 01 00:00:00
TRACK 05 AUDIO
TITLE "Slocum Hollow"
PERFORMER "Butch Baldassari"
INDEX 00 03:33:28
FILE "05 - Slocum Hollow.wav" WAVE
INDEX 01 00:00:00
TRACK 06 AUDIO
TITLE "Kentucky Mandolin"
PERFORMER "Butch Baldassari"
INDEX 00 02:53:38
FILE "06 - Kentucky Mandolin.wav" WAVE
INDEX 01 00:00:00
TRACK 07 AUDIO
TITLE "Methodist Preacher"
PERFORMER "Butch Baldassari"
INDEX 00 02:37:28
FILE "07 - Methodist Preacher.wav" WAVE
INDEX 01 00:00:00
TRACK 08 AUDIO
TITLE "The Jackrabbit Trail"
PERFORMER "Butch Baldassari"
INDEX 00 02:20:37
FILE "08 - The Jackrabbit Trail.wav" WAVE
INDEX 01 00:00:00
TRACK 09 AUDIO
TITLE "Rebecca"
PERFORMER "Butch Baldassari"
INDEX 00 02:39:45
FILE "09 - Rebecca.wav" WAVE
INDEX 01 00:00:00
TRACK 10 AUDIO
TITLE "Paintin' the Barn"
PERFORMER "Butch Baldassari"
INDEX 00 03:29:38
FILE "10 - Paintin' the Barn.wav" WAVE
INDEX 01 00:00:00
TRACK 11 AUDIO
TITLE "Maydelle's Reel"
PERFORMER "Butch Baldassari"
INDEX 00 02:32:03
FILE "11 - Maydelle's Reel.wav" WAVE
INDEX 01 00:00:00
TRACK 12 AUDIO
TITLE "No Title Yet Blues"
PERFORMER "Butch Baldassari"
INDEX 00 02:54:63
FILE "12 - No Title Yet Blues.wav" WAVE
INDEX 01 00:00:00
TRACK 13 AUDIO
TITLE "Waltz For Bill Monroe"
PERFORMER "Butch Baldassari"
INDEX 00 03:48:63
FILE "13 - Waltz For Bill Monroe.wav" WAVE
INDEX 01 00:00:00

Особая благодарность mandof5 за составление релиза
[Профиль] [ЛС]
Показать сообщения:    
Ответить на тему

Текущее время: Сегодня 20:45

Часовой пояс: GMT + 3



Вы не можете начинать темы
Вы не можете отвечать на сообщения
Вы не можете редактировать свои сообщения
Вы не можете удалять свои сообщения
Вы не можете голосовать в опросах
Вы не можете прикреплять файлы к сообщениям
Вы не можете скачивать файлы