(Classical) Chopin: Piano Concerto № 1; Piano Sonata № 3; Scherzos № 1, 3; Trois Nouvelles Etudes; Berceuse; Impromptu № 2 • Falla: Nights In The Gardens Of Spain • Grieg: Piano Concerto (Perlea, Swarowsky; Novaes) — 1993, APE (image+.cue) lossless

Ответить на тему
 
Автор Сообщение

djoti1 ®

Стаж: 5 лет

Сообщений: 1

Пост 10-Янв-2017 02:25

[Цитировать]

Piano Concerto № 1; Piano Sonata № 3; Scherzos № 1, 3; Trois Nouvelles Etudes; Berceuse; Impromptu № 2 • Nights In The Gardens Of Spain • Piano Concerto-
Жанр: Classical
Страна: США
Год издания дисков: 1993
Годы записи фонограмм: early 1950s
Издатель (лейбл): The Vox Music Group
Номер по каталогу: CDX2 5513
Композиторы: Frederic Chopin / Manuel de Falla / Edward Grieg
Исполнительский коллектив: Vienna Symphony Orchestra under Hans Swarowsky (CD1, 01-05); Bamberg Symphony Orchestra under Jonel Perlea (CD2, 01-03); Guiomar Novaes, piano
Аудио кодек: ape
Тип рипа: image+.cue
Битрейт аудио: lossless
Продолжительность: 02h36'33"
Источник: intoclassics
Наличие сканов в содержимом раздачи: да-

Треклист
CD 1 [01h17'39"]
Edward Grieg
(01-03) Piano Concerto a-moll Op 16 [30'05"]
Manuel de Falla
(04-05) Nights In The Gardens Of Spain G 49 [24'37"]
Frederic Chopin
06. Scherzo № 1 h-moll Op 20 [09'28"]
07. Scherzo № 3 сis-moll Op 39 [07'28"]
(08-10) Trois Nouvelles Etudes B 130 [06'01"]-

CUE
REM GENRE "Classical"
REM DATE "1993"
PERFORMER "Grieg, Falla, Chopin"
TITLE "Piano Works CD1"
FILE "CD1.ape" WAVE
TRACK 01 AUDIO
PERFORMER "Grieg"
TITLE "Piano Concerto a-moll Op 16 – I. Allegro"
INDEX 01 00:00:00
TRACK 02 AUDIO
PERFORMER "Grieg"
TITLE "Piano Concerto a-moll Op 16 – II. Adagio"
INDEX 01 13:14:00
TRACK 03 AUDIO
PERFORMER "Grieg"
TITLE "Piano Concerto a-moll Op 16 – III. Allegro Molto Moderato E Marcato"
INDEX 01 19:14:70
TRACK 04 AUDIO
PERFORMER "Falla"
TITLE "Nights In The Gardens Of Spain G 49 – I. In The Generalife"
INDEX 01 30:04:73
TRACK 05 AUDIO
PERFORMER "Falla"
TITLE "Nights In The Gardens Of Spain G 49 – II. A Distant Dance; III. In The Gardens Of The Sierra De Cordoba"
INDEX 01 41:14:53
TRACK 06 AUDIO
PERFORMER "Chopin"
TITLE "Scherzo № 1 h-moll Op 20"
INDEX 01 54:41:73
TRACK 07 AUDIO
PERFORMER "Chopin"
TITLE "Scherzo № 3 сis-moll Op 39"
INDEX 01 64:09:73
TRACK 08 AUDIO
PERFORMER "Chopin"
TITLE "Trois Nouvelles Etudes B 130 – I. № 1 f-moll"
INDEX 01 71:37:73
TRACK 09 AUDIO
PERFORMER "Chopin"
TITLE "Trois Nouvelles Etudes B 130 – II. № 2 As-Dur"
INDEX 01 74:08:73
TRACK 10 AUDIO
PERFORMER "Chopin"
TITLE "Trois Nouvelles Etudes B 130 – III. № 3 Des-Dur"
INDEX 01 75:58:00
-fooCDtect
fooCDtect - foobar2000 + auCDtect, baralgin.
auCDtect: CD records authenticity detector, version 0.8.2
Copyright (c) 2004 Oleg Berngardt. All rights reserved.
Copyright (c) 2004 Alexander Djourik. All rights reserved.
mode: 0
===========================================
Track: 01 Piano Concerto a-moll Op 16 – I. Allegro
Processing file: [01 Piano Concerto a-moll Op 16 – I. Allegro.aucdtect]
Detected average hi-boundary frequency: 2.035991e+004 Hz
Detected average lo-boundary frequency: 1.289810e+004 Hz
Detected average hi-cut frequency: 1.929815e+004 Hz
Detected average lo-cut frequency: 6.079312e+003 Hz
Maximum probablis boundary frequency: 2.189100e+004 Hz
Coefficient of nonlinearity of a phase: 1.555217e+000
First order smothness: 3.554118e-001
Second order smothness: 6.434118e-001
------------------------------------------------------------
This track looks like MPEG with probability 100%
===========================================
Track: 02 Piano Concerto a-moll Op 16 – II. Adagio
Processing file: [02 Piano Concerto a-moll Op 16 – II. Adagio.aucdtect]
Detected average hi-boundary frequency: 2.035047e+004 Hz
Detected average lo-boundary frequency: 1.286069e+004 Hz
Detected average hi-cut frequency: 1.935564e+004 Hz
Detected average lo-cut frequency: 4.578937e+003 Hz
Maximum probablis boundary frequency: 2.189100e+004 Hz
Coefficient of nonlinearity of a phase: 1.485666e+000
First order smothness: 3.480947e-001
Second order smothness: 6.001545e-001
------------------------------------------------------------
This track looks like MPEG with probability 99%
===========================================
Track: 03 Piano Concerto a-moll Op 16 – III. Allegro Molto Moderato E Marcato
Processing file: [03 Piano Concerto a-moll Op 16 – III. Allegro Molto Moderato E Marcato.aucdtect]
Detected average hi-boundary frequency: 2.035265e+004 Hz
Detected average lo-boundary frequency: 1.315205e+004 Hz
Detected average hi-cut frequency: 1.933254e+004 Hz
Detected average lo-cut frequency: 6.716146e+003 Hz
Maximum probablis boundary frequency: 2.189100e+004 Hz
Coefficient of nonlinearity of a phase: 2.167524e+000
First order smothness: 3.517873e-001
Second order smothness: 6.573670e-001
------------------------------------------------------------
This track looks like MPEG with probability 100%
===========================================
Track: 04 Nights In The Gardens Of Spain G 49 – I. In The Generalife
Processing file: [04 Nights In The Gardens Of Spain G 49 – I. In The Generalife.aucdtect]
Detected average hi-boundary frequency: 2.041547e+004 Hz
Detected average lo-boundary frequency: 1.338830e+004 Hz
Detected average hi-cut frequency: 1.936038e+004 Hz
Detected average lo-cut frequency: 6.781066e+003 Hz
Maximum probablis boundary frequency: 2.189100e+004 Hz
Coefficient of nonlinearity of a phase: 2.282311e+000
First order smothness: 3.328708e-001
Second order smothness: 6.292493e-001
------------------------------------------------------------
This track looks like MPEG with probability 93%
===========================================
Track: 05 Nights In The Gardens Of Spain G 49 – II. A Distant Dance; III. In The Gardens Of The Sierra De Cordoba
Processing file: [05 Nights In The Gardens Of Spain G 49 – II. A Distant Dance; III. In The Gardens Of The Sierra De Cordoba.aucdtect]
Detected average hi-boundary frequency: 2.039288e+004 Hz
Detected average lo-boundary frequency: 1.307078e+004 Hz
Detected average hi-cut frequency: 1.933172e+004 Hz
Detected average lo-cut frequency: 7.538035e+003 Hz
Maximum probablis boundary frequency: 2.189100e+004 Hz
Coefficient of nonlinearity of a phase: 2.101942e+000
First order smothness: 3.476894e-001
Second order smothness: 6.409033e-001
------------------------------------------------------------
This track looks like MPEG with probability 97%
===========================================
Track: 06 Scherzo № 1 h-moll Op 20
Processing file: [06 Scherzo № 1 h-moll Op 20.aucdtect]
Detected average hi-boundary frequency: 2.030735e+004 Hz
Detected average lo-boundary frequency: 1.241500e+004 Hz
Detected average hi-cut frequency: 1.997931e+004 Hz
Detected average lo-cut frequency: 4.265565e+003 Hz
Maximum probablis boundary frequency: 2.189100e+004 Hz
Coefficient of nonlinearity of a phase: 2.305584e+000
First order smothness: 3.850508e-001
Second order smothness: 6.500749e-001
------------------------------------------------------------
This track looks like CDDA with probability 43%
===========================================
Track: 07 Scherzo № 3 сis-moll Op 39
Processing file: [07 Scherzo № 3 сis-moll Op 39.aucdtect]
Detected average hi-boundary frequency: 2.027033e+004 Hz
Detected average lo-boundary frequency: 1.264909e+004 Hz
Detected average hi-cut frequency: 2.003531e+004 Hz
Detected average lo-cut frequency: 4.208160e+003 Hz
Maximum probablis boundary frequency: 2.189100e+004 Hz
Coefficient of nonlinearity of a phase: 2.309168e+000
First order smothness: 3.773345e-001
Second order smothness: 6.383701e-001
------------------------------------------------------------
This track looks like CDDA with probability 92%
===========================================
Track: 08 Trois Nouvelles Etudes B 130 – I. № 1 f-moll
Processing file: [08 Trois Nouvelles Etudes B 130 – I. № 1 f-moll.aucdtect]
Detected average hi-boundary frequency: 2.029261e+004 Hz
Detected average lo-boundary frequency: 1.254704e+004 Hz
Detected average hi-cut frequency: 2.002141e+004 Hz
Detected average lo-cut frequency: 3.450646e+003 Hz
Maximum probablis boundary frequency: 2.189100e+004 Hz
Coefficient of nonlinearity of a phase: 2.159281e+000
First order smothness: 3.896920e-001
Second order smothness: 6.040226e-001
------------------------------------------------------------
This track looks like CDDA with probability 76%
===========================================
Track: 09 Trois Nouvelles Etudes B 130 – II. № 2 As-Dur
Processing file: [09 Trois Nouvelles Etudes B 130 – II. № 2 As-Dur.aucdtect]
Detected average hi-boundary frequency: 2.030197e+004 Hz
Detected average lo-boundary frequency: 1.279236e+004 Hz
Detected average hi-cut frequency: 2.011121e+004 Hz
Detected average lo-cut frequency: 3.468013e+003 Hz
Maximum probablis boundary frequency: 2.189100e+004 Hz
Coefficient of nonlinearity of a phase: 2.355535e+000
First order smothness: 3.877193e-001
Second order smothness: 6.228070e-001
------------------------------------------------------------
This track looks like CDDA with probability 86%
===========================================
Track: 10 Trois Nouvelles Etudes B 130 – III. № 3 Des-Dur
Processing file: [10 Trois Nouvelles Etudes B 130 – III. № 3 Des-Dur.aucdtect]
Detected average hi-boundary frequency: 2.037016e+004 Hz
Detected average lo-boundary frequency: 1.159886e+004 Hz
Detected average hi-cut frequency: 2.003589e+004 Hz
Detected average lo-cut frequency: 4.318279e+003 Hz
Maximum probablis boundary frequency: 2.189100e+004 Hz
Coefficient of nonlinearity of a phase: 1.566367e+000
First order smothness: 3.858998e-001
Second order smothness: 6.771800e-001
------------------------------------------------------------
This track looks like MPEG with probability 91%
===========================================
-Spectrogram -CD 2 [01h18'54"]
Frederic Chopin
(01-03) Piano Concerto № 1 e-moll Op 11 [43'59"]
(04-07) Piano Sonata № 3 h-moll Op 58 [24'25"]
08. Berceuse Des-Dur Op 57 [04'36"]
09. Impromptu № 2 Fis-Dur Op 36 [05'54"]-

CUE
REM GENRE "Classical"
REM DATE "1993"
PERFORMER "Chopin"
TITLE "Piano Works CD2"
FILE "CD2.ape" WAVE
TRACK 01 AUDIO
PERFORMER "Chopin"
TITLE "Piano Concerto № 1 e-moll Op 11 – I. Allegro Maestoso"
INDEX 01 00:00:00
TRACK 02 AUDIO
PERFORMER "Chopin"
TITLE "Piano Concerto № 1 e-moll Op 11 – II. Romanze"
INDEX 01 20:30:73
TRACK 03 AUDIO
PERFORMER "Chopin"
TITLE "Piano Concerto № 1 e-moll Op 11 – III. Rondo Vivace"
INDEX 01 32:35:35
TRACK 04 AUDIO
PERFORMER "Chopin"
TITLE "Piano Sonata № 3 h-moll Op 58 – I. Allegro Maestoso"
INDEX 01 43:59:00
TRACK 05 AUDIO
PERFORMER "Chopin"
TITLE "Piano Sonata № 3 h-moll Op 58 – II. Scherzo"
INDEX 01 53:25:73
TRACK 06 AUDIO
PERFORMER "Chopin"
TITLE "Piano Sonata № 3 h-moll Op 58 – III. Largo"
INDEX 01 55:53:00
TRACK 07 AUDIO
PERFORMER "Chopin"
TITLE "Piano Sonata № 3 h-moll Op 58 – IV. Presto Non Tanto Agitato"
INDEX 01 63:06:53
TRACK 08 AUDIO
PERFORMER "Chopin"
TITLE "Berceuse Des-Dur Op 57"
INDEX 01 68:23:73
TRACK 09 AUDIO
PERFORMER "Chopin"
TITLE "Impromptu № 2 Fis-Dur Op 36"
INDEX 01 73:00:00
-fooCDtect
fooCDtect - foobar2000 + auCDtect, baralgin.
auCDtect: CD records authenticity detector, version 0.8.2
Copyright (c) 2004 Oleg Berngardt. All rights reserved.
Copyright (c) 2004 Alexander Djourik. All rights reserved.
mode: 0
===========================================
Track: 01 Piano Concerto № 1 e-moll Op 11 – I. Allegro Maestoso
Processing file: [01 Piano Concerto № 1 e-moll Op 11 – I. Allegro Maestoso.aucdtect]
Detected average hi-boundary frequency: 2.005001e+004 Hz
Detected average lo-boundary frequency: 1.356845e+004 Hz
Detected average hi-cut frequency: 1.969075e+004 Hz
Detected average lo-cut frequency: 5.697722e+003 Hz
Maximum probablis boundary frequency: 2.189100e+004 Hz
Coefficient of nonlinearity of a phase: 3.254718e-002
First order smothness: 3.806676e-001
Second order smothness: 6.007872e-001
------------------------------------------------------------
This track looks like MPEG with probability 91%
===========================================
Track: 02 Piano Concerto № 1 e-moll Op 11 – II. Romanze
Processing file: [02 Piano Concerto № 1 e-moll Op 11 – II. Romanze.aucdtect]
Detected average hi-boundary frequency: 2.016074e+004 Hz
Detected average lo-boundary frequency: 1.249888e+004 Hz
Detected average hi-cut frequency: 2.050970e+004 Hz
Detected average lo-cut frequency: 3.919388e+003 Hz
Maximum probablis boundary frequency: 2.189100e+004 Hz
Coefficient of nonlinearity of a phase: 2.137593e-001
First order smothness: 3.576108e-001
Second order smothness: 6.263327e-001
------------------------------------------------------------
This track looks like CDDA with probability 62%
===========================================
Track: 03 Piano Concerto № 1 e-moll Op 11 – III. Rondo Vivace
Processing file: [03 Piano Concerto № 1 e-moll Op 11 – III. Rondo Vivace.aucdtect]
Detected average hi-boundary frequency: 2.019764e+004 Hz
Detected average lo-boundary frequency: 1.375751e+004 Hz
Detected average hi-cut frequency: 1.980766e+004 Hz
Detected average lo-cut frequency: 5.410330e+003 Hz
Maximum probablis boundary frequency: 2.189100e+004 Hz
Coefficient of nonlinearity of a phase: 6.379969e-002
First order smothness: 3.916277e-001
Second order smothness: 5.958414e-001
------------------------------------------------------------
This track looks like MPEG with probability 100%
===========================================
Track: 04 Piano Sonata № 3 h-moll Op 58 – I. Allegro Maestoso
Processing file: [04 Piano Sonata № 3 h-moll Op 58 – I. Allegro Maestoso.aucdtect]
Detected average hi-boundary frequency: 2.024520e+004 Hz
Detected average lo-boundary frequency: 1.234320e+004 Hz
Detected average hi-cut frequency: 2.090889e+004 Hz
Detected average lo-cut frequency: 5.436306e+003 Hz
Maximum probablis boundary frequency: 2.189100e+004 Hz
Coefficient of nonlinearity of a phase: 1.561160e+000
First order smothness: 3.918138e-001
Second order smothness: 6.765143e-001
------------------------------------------------------------
This track looks like CDDA with probability 100%
===========================================
Track: 05 Piano Sonata № 3 h-moll Op 58 – II. Scherzo
Processing file: [05 Piano Sonata № 3 h-moll Op 58 – II. Scherzo.aucdtect]
Detected average hi-boundary frequency: 2.014933e+004 Hz
Detected average lo-boundary frequency: 1.246666e+004 Hz
Detected average hi-cut frequency: 2.093056e+004 Hz
Detected average lo-cut frequency: 6.375077e+003 Hz
Maximum probablis boundary frequency: 2.189100e+004 Hz
Coefficient of nonlinearity of a phase: 2.170075e+000
First order smothness: 3.525599e-001
Second order smothness: 6.934543e-001
------------------------------------------------------------
This track looks like CDDA with probability 100%
===========================================
Track: 06 Piano Sonata № 3 h-moll Op 58 – III. Largo
Processing file: [06 Piano Sonata № 3 h-moll Op 58 – III. Largo.aucdtect]
Detected average hi-boundary frequency: 2.026932e+004 Hz
Detected average lo-boundary frequency: 1.208727e+004 Hz
Detected average hi-cut frequency: 2.092179e+004 Hz
Detected average lo-cut frequency: 7.480333e+003 Hz
Maximum probablis boundary frequency: 2.189100e+004 Hz
Coefficient of nonlinearity of a phase: 1.592560e+000
First order smothness: 3.966145e-001
Second order smothness: 6.961646e-001
------------------------------------------------------------
This track looks like CDDA with probability 100%
===========================================
Track: 07 Piano Sonata № 3 h-moll Op 58 – IV. Presto Non Tanto Agitato
Processing file: [07 Piano Sonata № 3 h-moll Op 58 – IV. Presto Non Tanto Agitato.aucdtect]
Detected average hi-boundary frequency: 2.023297e+004 Hz
Detected average lo-boundary frequency: 1.295561e+004 Hz
Detected average hi-cut frequency: 2.085348e+004 Hz
Detected average lo-cut frequency: 6.193387e+003 Hz
Maximum probablis boundary frequency: 2.189100e+004 Hz
Coefficient of nonlinearity of a phase: 2.121649e+000
First order smothness: 3.384848e-001
Second order smothness: 6.987879e-001
------------------------------------------------------------
This track looks like CDDA with probability 100%
===========================================
Track: 08 Berceuse Des-Dur Op 57
Processing file: [08 Berceuse Des-Dur Op 57.aucdtect]
Detected average hi-boundary frequency: 2.048149e+004 Hz
Detected average lo-boundary frequency: 1.157147e+004 Hz
Detected average hi-cut frequency: 1.885599e+004 Hz
Detected average lo-cut frequency: 6.899054e+003 Hz
Maximum probablis boundary frequency: 2.189100e+004 Hz
Coefficient of nonlinearity of a phase: 2.063070e+000
First order smothness: 4.307208e-001
Second order smothness: 6.892932e-001
------------------------------------------------------------
This track looks like MPEG with probability 100%
===========================================
Track: 09 Impromptu № 2 Fis-Dur Op 36
Processing file: [09 Impromptu № 2 Fis-Dur Op 36.aucdtect]
Detected average hi-boundary frequency: 2.036891e+004 Hz
Detected average lo-boundary frequency: 1.237739e+004 Hz
Detected average hi-cut frequency: 1.919008e+004 Hz
Detected average lo-cut frequency: 4.127846e+003 Hz
Maximum probablis boundary frequency: 2.189100e+004 Hz
Coefficient of nonlinearity of a phase: 1.487067e+000
First order smothness: 3.795736e-001
Second order smothness: 6.551724e-001
------------------------------------------------------------
This track looks like MPEG with probability 100%
===========================================
-Spectrogram -
Особая благодарность metachrom за составление релиза
[Профиль] [ЛС]
Показать сообщения:    
Ответить на тему

Текущее время: Сегодня 10:21

Часовой пояс: GMT + 3



Вы не можете начинать темы
Вы не можете отвечать на сообщения
Вы не можете редактировать свои сообщения
Вы не можете удалять свои сообщения
Вы не можете голосовать в опросах
Вы не можете прикреплять файлы к сообщениям
Вы не можете скачивать файлы