(Bluegrass) [CD] David Grisman - David Grisman\'s Acoustic Christmas - 1986, FLAC (tracks+.cue), lossless

Ответить на тему
 
Автор Сообщение

andryano ®

Стаж: 1 год 10 месяцев

Сообщений: 1

Пост 07-Янв-2017 08:35

[Цитировать]

David Grisman / David Grisman's Acoustic Christmas
Жанр: Bluegrass
Носитель: CD
Страна-производитель диска (релиза): USA
Год издания: 1986
Издатель (лейбл): Rounder
Номер по каталогу: 0190
Аудиокодек: FLAC (*.flac)
Тип рипа: tracks+.cue
Битрейт аудио: lossless
Продолжительность: 00:36:02
Источник (релизер): can't recall
Наличие сканов в содержимом раздачи: нет
Треклист:
1. What Child Is This?
2. Santa Claus Is Coming To Town
3. Respighi: Ancient Aires and Dances
4. The Christmas Song
5. God Rest Ye Merry Gentlemen
6. We Wish You A Merry Christmas (Dedicated to Scrooge McDuck)
7. White Christmas (Dedicated to Ben Webster)
8. The Flower Carol (Good King Wenceslas)
9. Winter Wonderland
10. Silent Night
11. Auld Lang Syne
Лог создания рипа
Exact Audio Copy V1.0 beta 3 from 29. August 2011
EAC extraction logfile from 19. August 2013, 21:45
Grisman, David / David Grisman's Acoustic Christmas
Used drive : HP DVD Writer 1040r Adapter: 0 ID: 1
Read mode : Secure
Utilize accurate stream : Yes
Defeat audio cache : Yes
Make use of C2 pointers : No
Read offset correction : 6
Overread into Lead-In and Lead-Out : No
Fill up missing offset samples with silence : Yes
Delete leading and trailing silent blocks : No
Null samples used in CRC calculations : Yes
Used interface : Native Win32 interface for Win NT & 2000
Gap handling : Appended to previous track
Used output format : User Defined Encoder
Selected bitrate : 1024 kBit/s
Quality : High
Add ID3 tag : No
Command line compressor : C:\Program Files\Exact Audio Copy\Flac\flac.exe
Additional command line options : -8 -V -T "ARTIST=%artist%" -T "TITLE=%title%" -T "ALBUM=%albumtitle%" -T "DATE=%year%" -T "TRACKNUMBER=%tracknr%" -T "GENRE=%genre%" -T "PERFORMER=%albuminterpret%" -T "COMPOSER=%composer%" %haslyrics%--tag-from-file=LYRICS="%lyricsfile%"%haslyrics% -T "ALBUMARTIST=%albumartist%" -T "DISCNUMBER=%cdnumber%" -T "TOTALDISCS=%totalcds%" -T "TOTALTRACKS=%numtracks%" -T "COMMENT=%comment%" %source% -o %dest%
TOC of the extracted CD
Track | Start | Length | Start sector | End sector
---------------------------------------------------------
1 | 0:00.32 | 1:01.10 | 32 | 4616
2 | 1:01.42 | 3:37.15 | 4617 | 20906
3 | 4:38.57 | 2:32.43 | 20907 | 32349
4 | 7:11.25 | 4:07.00 | 32350 | 50874
5 | 11:18.25 | 6:51.20 | 50875 | 81719
6 | 18:09.45 | 0:41.37 | 81720 | 84831
7 | 18:51.07 | 4:16.48 | 84832 | 104079
8 | 23:07.55 | 1:27.00 | 104080 | 110604
9 | 24:34.55 | 3:44.57 | 110605 | 127461
10 | 28:19.37 | 3:42.53 | 127462 | 144164
11 | 32:02.15 | 4:04.17 | 144165 | 162481
Track 1
Filename F:\EAC music folders\David Grisman - David Grisman's Acoustic Christmas (1986) [FLAC] {Rounder CD - 0190}\01 What Child Is This.wav
Pre-gap length 0:00:02.42
Peak level 69.9 %
Extraction speed 1.4 X
Track quality 100.0 %
Test CRC 82479CBD
Copy CRC 82479CBD
Cannot be verified as accurate (confidence 6) [507E38A5], AccurateRip returned [8A9D8637] (AR v2)
Copy OK
Track 2
Filename F:\EAC music folders\David Grisman - David Grisman's Acoustic Christmas (1986) [FLAC] {Rounder CD - 0190}\02 Santa Claus Is Coming to Town.wav
Pre-gap length 0:00:00.80
Peak level 82.8 %
Extraction speed 2.0 X
Track quality 100.0 %
Test CRC F884579B
Copy CRC F884579B
Cannot be verified as accurate (confidence 6) [B3EAAE52], AccurateRip returned [24772E0C] (AR v2)
Copy OK
Track 3
Filename F:\EAC music folders\David Grisman - David Grisman's Acoustic Christmas (1986) [FLAC] {Rounder CD - 0190}\03 Respighi- Ancient Aires and Dances.wav
Pre-gap length 0:00:02.33
Peak level 95.1 %
Extraction speed 2.0 X
Track quality 100.0 %
Test CRC F0ECC141
Copy CRC F0ECC141
Cannot be verified as accurate (confidence 6) [0D60B5AE], AccurateRip returned [27E09A3A] (AR v2)
Copy OK
Track 4
Filename F:\EAC music folders\David Grisman - David Grisman's Acoustic Christmas (1986) [FLAC] {Rounder CD - 0190}\04 The Christmas Song.wav
Pre-gap length 0:00:01.40
Peak level 67.1 %
Extraction speed 1.9 X
Track quality 99.9 %
Test CRC 4235A49A
Copy CRC 4235A49A
Cannot be verified as accurate (confidence 6) [51D635A2], AccurateRip returned [C7563B04] (AR v2)
Copy OK
Track 5
Filename F:\EAC music folders\David Grisman - David Grisman's Acoustic Christmas (1986) [FLAC] {Rounder CD - 0190}\05 God Rest Ye Merry Gentlemen.wav
Pre-gap length 0:00:01.57
Peak level 84.0 %
Extraction speed 2.5 X
Track quality 100.0 %
Test CRC 2A060EB3
Copy CRC 2A060EB3
Cannot be verified as accurate (confidence 6) [89B74EE9], AccurateRip returned [E862059B] (AR v2)
Copy OK
Track 6
Filename F:\EAC music folders\David Grisman - David Grisman's Acoustic Christmas (1986) [FLAC] {Rounder CD - 0190}\06 We Wish You a Merry Christmas.wav
Pre-gap length 0:00:01.60
Peak level 55.2 %
Extraction speed 0.9 X
Track quality 99.7 %
Test CRC 6645D300
Copy CRC 6645D300
Cannot be verified as accurate (confidence 6) [49934497], AccurateRip returned [9DAACA3C] (AR v2)
Copy OK
Track 7
Filename F:\EAC music folders\David Grisman - David Grisman's Acoustic Christmas (1986) [FLAC] {Rounder CD - 0190}\07 White Christmas.wav
Pre-gap length 0:00:04.16
Peak level 94.7 %
Extraction speed 2.2 X
Track quality 99.9 %
Test CRC 505DC2ED
Copy CRC 505DC2ED
Cannot be verified as accurate (confidence 6) [8208D77B], AccurateRip returned [49782EE4] (AR v2)
Copy OK
Track 8
Filename F:\EAC music folders\David Grisman - David Grisman's Acoustic Christmas (1986) [FLAC] {Rounder CD - 0190}\08 The Flower Carol (Good King Wenceslas).wav
Peak level 54.9 %
Extraction speed 2.1 X
Track quality 100.0 %
Test CRC 8BF6D6BF
Copy CRC 8BF6D6BF
Cannot be verified as accurate (confidence 6) [E699B89D], AccurateRip returned [3146332D] (AR v2)
Copy OK
Track 9
Filename F:\EAC music folders\David Grisman - David Grisman's Acoustic Christmas (1986) [FLAC] {Rounder CD - 0190}\09 Winter Wonderland.wav
Peak level 95.3 %
Extraction speed 2.2 X
Track quality 99.9 %
Test CRC FCFE64A7
Copy CRC FCFE64A7
Cannot be verified as accurate (confidence 6) [CB097C7E], AccurateRip returned [A94D8CF6] (AR v2)
Copy OK
Track 10
Filename F:\EAC music folders\David Grisman - David Grisman's Acoustic Christmas (1986) [FLAC] {Rounder CD - 0190}\10 Silent Night.wav
Pre-gap length 0:00:01.06
Peak level 64.6 %
Extraction speed 2.8 X
Track quality 100.0 %
Test CRC 3381E186
Copy CRC 3381E186
Cannot be verified as accurate (confidence 6) [5A4C30F3], AccurateRip returned [D14E8BC6] (AR v2)
Copy OK
Track 11
Filename F:\EAC music folders\David Grisman - David Grisman's Acoustic Christmas (1986) [FLAC] {Rounder CD - 0190}\11 Auld Lang Syne.wav
Peak level 84.0 %
Extraction speed 2.9 X
Track quality 100.0 %
Test CRC D739CA82
Copy CRC D739CA82
Cannot be verified as accurate (confidence 6) [06F9D098], AccurateRip returned [A3327405] (AR v2)
Copy OK
No tracks could be verified as accurate
You may have a different pressing from the one(s) in the database
No errors occurred
End of status report
==== Log checksum 5CEE4BEF9C8EFEB048EC22821D7DE2528FE9263668B2FFE27FDDCA4CE539C55F ====
Содержание индексной карты (.CUE)
REM GENRE Holiday
REM DATE 1986
REM DISCID 8008760B
REM COMMENT "ExactAudioCopy v1.0b3"
CATALOG 0000000000000
PERFORMER "Grisman, David"
TITLE "David Grisman's Acoustic Christmas"
FILE "01 What Child Is This.wav" WAVE
TRACK 01 AUDIO
TITLE "What Child Is This?"
PERFORMER "Grisman, David"
ISRC USRO28619001
PREGAP 00:00:32
INDEX 01 00:00:00
TRACK 02 AUDIO
TITLE "Santa Claus Is Coming to Town"
PERFORMER "Grisman, David"
ISRC USRO28619002
INDEX 00 01:00:25
FILE "02 Santa Claus Is Coming to Town.wav" WAVE
INDEX 01 00:00:00
TRACK 03 AUDIO
TITLE "Respighi: Ancient Aires and Dances"
PERFORMER "Grisman, David"
ISRC USRO28619003
INDEX 00 03:34:65
FILE "03 Respighi- Ancient Aires and Dances.wav" WAVE
INDEX 01 00:00:00
TRACK 04 AUDIO
TITLE "The Christmas Song"
PERFORMER "Grisman, David"
ISRC USRO28619004
INDEX 00 02:31:13
FILE "04 The Christmas Song.wav" WAVE
INDEX 01 00:00:00
TRACK 05 AUDIO
TITLE "God Rest Ye Merry Gentlemen"
PERFORMER "Grisman, David"
ISRC USRO28619005
INDEX 00 04:05:32
FILE "05 God Rest Ye Merry Gentlemen.wav" WAVE
INDEX 01 00:00:00
TRACK 06 AUDIO
TITLE "We Wish You a Merry Christmas"
PERFORMER "Grisman, David"
ISRC USRO28619006
INDEX 00 06:49:50
FILE "06 We Wish You a Merry Christmas.wav" WAVE
INDEX 01 00:00:00
TRACK 07 AUDIO
TITLE "White Christmas"
PERFORMER "Grisman, David"
ISRC USRO28619007
INDEX 00 00:37:25
FILE "07 White Christmas.wav" WAVE
INDEX 01 00:00:00
FILE "08 The Flower Carol (Good King Wenceslas).wav" WAVE
TRACK 08 AUDIO
TITLE "The Flower Carol (Good King Wenceslas)"
PERFORMER "Grisman, David"
ISRC USRO28619008
INDEX 01 00:00:00
FILE "09 Winter Wonderland.wav" WAVE
TRACK 09 AUDIO
TITLE "Winter Wonderland"
PERFORMER "Grisman, David"
ISRC USRO28619009
INDEX 01 00:00:00
TRACK 10 AUDIO
TITLE "Silent Night"
PERFORMER "Grisman, David"
ISRC USRO28619010
INDEX 00 03:43:52
FILE "10 Silent Night.wav" WAVE
INDEX 01 00:00:00
FILE "11 Auld Lang Syne.wav" WAVE
TRACK 11 AUDIO
TITLE "Auld Lang Syne"
PERFORMER "Grisman, David"
ISRC USRO28619011
INDEX 01 00:00:00

Особая благодарность mandof5 за составление релиза
[Профиль] [ЛС]
Показать сообщения:    
Ответить на тему

Текущее время: Сегодня 08:06

Часовой пояс: GMT + 3



Вы не можете начинать темы
Вы не можете отвечать на сообщения
Вы не можете редактировать свои сообщения
Вы не можете удалять свои сообщения
Вы не можете голосовать в опросах
Вы не можете прикреплять файлы к сообщениям
Вы не можете скачивать файлы