Estas Tonne - Internal Flight [2016, Meditative, Instrumental, Guitar, HDRip]

Ответить на тему
 
Автор Сообщение

oostryj ®

Стаж: 4 года 11 месяцев

Сообщений: 1

Пост 31-Дек-2016 23:10

[Цитировать]

Estas Tonne - Internal Flight
Страна: Germany
Жанр: Meditative, Instrumental, Guitar
Продолжительность: 00:29:06
Год выпуска: 2016
Лейбл: Self-released
Треклист: [29:06] Internal Flight
Разбивка на главы по трекам: нет
Качество : HDRip
Формат: mp4
Видео: AVC, 1920х1080 (16:9), 25,0 fps, 4500 kbps avg, 0.087 bit/pixel
Аудио: AAC, 48 kHz, 256 kbps, 2 (l,r)
Mediainfo
Общее
Полное имя : C:\Users\Auser\Desktop\Estas Tonne - Internal Flight - 2016\Estas Tonne - Internal Flight - 2016.mp4
Формат : MPEG-4
Профиль формата : Base Media / Version 2
Идентификатор кодека : mp42 (mp42/mp41/isom/avc1)
Размер файла : 987 Мбайт
Продолжительность : 29 м. 6 с.
Режим общего битрейта : Переменный
Общий поток : 4740 Кбит/сек
Дата кодирования : UTC 2016-12-15 22:23:54
Дата пометки : UTC 2016-12-15 22:23:54
Видео
Идентификатор : 1
Формат : AVC
Формат/Информация : Advanced Video Codec
Профиль формата : High@L4
Параметр CABAC формата : Да
Параметр ReFrames формата : 4 кадра
Идентификатор кодека : avc1
Идентификатор кодека/Информация : Advanced Video Coding
Продолжительность : 29 м. 6 с.
Битрейт : 4500 Кбит/сек
Ширина : 1920 пикселей
Высота : 1080 пикселей
Соотношение сторон : 16:9
Режим частоты кадров : Постоянный
Частота кадров : 25,000 кадров/сек
Цветовое пространство : YUV
Субдискретизация насыщенности : 4:2:0
Битовая глубина : 8 бит
Тип развёртки : Прогрессивная
Бит/(Пиксели*Кадры) : 0.087
Размер потока : 933 Мбайт (95%)
Библиотека кодирования : x264 core 148 r10 72d53ab
Настройки программы : cabac=1 / ref=4 / deblock=1:0:0 / analyse=0x3:0x113 / me=hex / subme=8 / psy=1 / psy_rd=1.00:0.00 / mixed_ref=1 / me_range=16 / chroma_me=1 / trellis=2 / 8x8dct=1 / cqm=0 / deadzone=21,11 / fast_pskip=1 / chroma_qp_offset=-2 / threads=34 / lookahead_threads=5 / sliced_threads=0 / nr=0 / decimate=1 / interlaced=0 / bluray_compat=0 / stitchable=1 / constrained_intra=0 / bframes=3 / b_pyramid=2 / b_adapt=1 / b_bias=0 / direct=3 / weightb=1 / open_gop=0 / weightp=2 / keyint=infinite / keyint_min=25 / scenecut=40 / intra_refresh=0 / rc_lookahead=50 / rc=2pass / mbtree=1 / bitrate=4500 / ratetol=1.0 / qcomp=0.60 / qpmin=5 / qpmax=69 / qpstep=4 / cplxblur=20.0 / qblur=0.5 / vbv_maxrate=4950 / vbv_bufsize=13500 / nal_hrd=none / filler=0 / ip_ratio=1.40 / aq=1:1.00
Дата кодирования : UTC 2016-12-15 22:23:54
Дата пометки : UTC 2016-12-15 22:23:54
Цветовой диапазон : Limited
Основные цвета : BT.709
Характеристики трансфера : BT.709
Коэффициенты матрицы : BT.709
Аудио
Идентификатор : 2
Формат : AAC
Формат/Информация : Advanced Audio Codec
Профиль формата : LC
Идентификатор кодека : 40
Продолжительность : 29 м. 6 с.
Вид битрейта : Переменный
Битрейт : 256 Кбит/сек
Каналы : 2 канала
Расположение каналов : Front: L R
Частота : 48,0 КГц
Частота кадров : 46,875 кадров/сек (1024 spf)
Метод сжатия : С потерями
Размер потока : 53,3 Мбайт (5%)
Дата кодирования : UTC 2016-12-15 22:23:54
Дата пометки : UTC 2016-12-15 22:23:54
Скриншоты
Особая благодарность LAnces за составление релиза
[Профиль] [ЛС]
Показать сообщения:    
Ответить на тему

Текущее время: Сегодня 13:11

Часовой пояс: GMT + 3



Вы не можете начинать темы
Вы не можете отвечать на сообщения
Вы не можете редактировать свои сообщения
Вы не можете удалять свои сообщения
Вы не можете голосовать в опросах
Вы не можете прикреплять файлы к сообщениям
Вы не можете скачивать файлы