(Country, Pop) [CD] Joe Goldmark - Steelin\' the Beatles - 1997, FLAC (tracks+.cue), lossless

Ответить на тему
 
Автор Сообщение

margo-soska ®

Стаж: 6 лет

Сообщений: 3

Пост 29-Дек-2016 10:10

[Цитировать]

Joe Goldmark - Steelin' the Beatles
Жанр: Country, Pop
Носитель: CD
Страна-производитель диска (релиза): USA
Год издания: 1997
Издатель (лейбл): Lo-Ball Records
Номер по каталогу: Lo-Ball #8
Страна исполнителя (группы): USA
Аудиокодек: FLAC (*.flac)
Тип рипа: tracks+.cue
Битрейт аудио: lossless
Продолжительность: 32:18
Источник (релизер): Собственный диск
Наличие сканов в содержимом раздачи: да
Треклист:
01. Day Tripper - 3:09
02. The Night Before - 2:40
03. I'm Only Sleeping - 2:59
04. You Can't Do That - 2:47
05. Awaiting on You All - 2:48
06. Flying - 2:41
07. Penny Lane - 2:55
08. She's a Woman - 3:24
09. Baby's in Black - 1:55
10. She Came in Through the Bathroom Window - 2:43
11. I Will - 1:50
12. Bad to Me - 2:26
Лог создания рипа
Exact Audio Copy V1.1 from 23. June 2015
EAC extraction logfile from 15. July 2016, 11:32
Joe Goldmark / Steelin' the Beatles
Used drive : TSSTcorpCDDVDW TS-U633J Adapter: 1 ID: 0
Read mode : Secure
Utilize accurate stream : Yes
Defeat audio cache : Yes
Make use of C2 pointers : No
Read offset correction : 6
Overread into Lead-In and Lead-Out : No
Fill up missing offset samples with silence : Yes
Delete leading and trailing silent blocks : No
Null samples used in CRC calculations : Yes
Used interface : Native Win32 interface for Win NT & 2000
Gap handling : Appended to previous track
Used output format : User Defined Encoder
Selected bitrate : 1024 kBit/s
Quality : High
Add ID3 tag : No
Command line compressor : C:\Program Files (x86)\Exact Audio Copy\Flac\flac.exe
Additional command line options : -8 -e -V -T "ARTIST=%artist%" -T "TITLE=%title%" -T "ALBUM=%albumtitle%" -T "DATE=%year%" -T "TRACKNUMBER=%tracknr%" -T "GENRE=%genre%" -T "PERFORMER=%albuminterpret%" -T "COMPOSER=%composer%" %haslyrics%--tag-from-file=LYRICS="%lyricsfile%"%haslyrics% -T "ALBUMARTIST=%albumartist%" -T "DISCNUMBER=%cdnumber%" -T "TOTALDISCS=%totalcds%" -T "TOTALTRACKS=%numtracks%" -T "COMMENT=%comment%" %source% -o %dest%
TOC of the extracted CD
Track | Start | Length | Start sector | End sector
---------------------------------------------------------
1 | 0:00.00 | 3:08.50 | 0 | 14149
2 | 3:08.50 | 2:39.70 | 14150 | 26144
3 | 5:48.45 | 2:59.12 | 26145 | 39581
4 | 8:47.57 | 2:47.03 | 39582 | 52109
5 | 11:34.60 | 2:48.07 | 52110 | 64716
6 | 14:22.67 | 2:41.13 | 64717 | 76804
7 | 17:04.05 | 2:55.37 | 76805 | 89966
8 | 19:59.42 | 3:24.20 | 89967 | 105286
9 | 23:23.62 | 1:55.05 | 105287 | 113916
10 | 25:18.67 | 2:43.35 | 113917 | 126176
11 | 28:02.27 | 1:50.30 | 126177 | 134456
12 | 29:52.57 | 2:26.00 | 134457 | 145406
Track 1
Filename C:\EAC Rips\Joe Goldmark - Steelin' the Beatles (1997) [FLAC] {Lo-Ball #8}\01 - Day Tripper.wav
Pre-gap length 0:00:02.00
Peak level 96.6 %
Extraction speed 2.4 X
Track quality 100.0 %
Test CRC D68E8FC8
Copy CRC D68E8FC8
Accurately ripped (confidence 2) [01FD2ED6] (AR v1)
Copy OK
Track 2
Filename C:\EAC Rips\Joe Goldmark - Steelin' the Beatles (1997) [FLAC] {Lo-Ball #8}\02 - The Night Before.wav
Peak level 96.5 %
Extraction speed 2.5 X
Track quality 100.0 %
Test CRC 805FAA61
Copy CRC 805FAA61
Accurately ripped (confidence 2) [A4F06385] (AR v1)
Copy OK
Track 3
Filename C:\EAC Rips\Joe Goldmark - Steelin' the Beatles (1997) [FLAC] {Lo-Ball #8}\03 - I'm Only Sleeping.wav
Peak level 92.6 %
Extraction speed 2.8 X
Track quality 100.0 %
Test CRC 3A64F2E3
Copy CRC 3A64F2E3
Accurately ripped (confidence 2) [94D00E3B] (AR v1)
Copy OK
Track 4
Filename C:\EAC Rips\Joe Goldmark - Steelin' the Beatles (1997) [FLAC] {Lo-Ball #8}\04 - You Can't Do That.wav
Peak level 95.6 %
Extraction speed 2.9 X
Track quality 100.0 %
Test CRC 001FB0D2
Copy CRC 001FB0D2
Accurately ripped (confidence 2) [B4BC9EDA] (AR v1)
Copy OK
Track 5
Filename C:\EAC Rips\Joe Goldmark - Steelin' the Beatles (1997) [FLAC] {Lo-Ball #8}\05 - Awaiting on You All.wav
Peak level 95.1 %
Extraction speed 3.0 X
Track quality 100.0 %
Test CRC B938183A
Copy CRC B938183A
Accurately ripped (confidence 2) [39D1D705] (AR v1)
Copy OK
Track 6
Filename C:\EAC Rips\Joe Goldmark - Steelin' the Beatles (1997) [FLAC] {Lo-Ball #8}\06 - Flying.wav
Peak level 93.4 %
Extraction speed 3.2 X
Track quality 100.0 %
Test CRC B7B7890A
Copy CRC B7B7890A
Accurately ripped (confidence 2) [EC6466AC] (AR v1)
Copy OK
Track 7
Filename C:\EAC Rips\Joe Goldmark - Steelin' the Beatles (1997) [FLAC] {Lo-Ball #8}\07 - Penny Lane.wav
Pre-gap length 0:00:02.26
Peak level 93.1 %
Extraction speed 3.4 X
Track quality 100.0 %
Test CRC 6988140C
Copy CRC 6988140C
Accurately ripped (confidence 2) [960BDBA6] (AR v1)
Copy OK
Track 8
Filename C:\EAC Rips\Joe Goldmark - Steelin' the Beatles (1997) [FLAC] {Lo-Ball #8}\08 - She's a Woman.wav
Pre-gap length 0:00:01.76
Peak level 95.3 %
Extraction speed 3.6 X
Track quality 100.0 %
Test CRC 884DFA5B
Copy CRC 884DFA5B
Accurately ripped (confidence 2) [5714EA46] (AR v1)
Copy OK
Track 9
Filename C:\EAC Rips\Joe Goldmark - Steelin' the Beatles (1997) [FLAC] {Lo-Ball #8}\09 - Baby's in Black.wav
Pre-gap length 0:00:02.62
Peak level 95.8 %
Extraction speed 3.3 X
Track quality 100.0 %
Test CRC 0AA0A28C
Copy CRC 0AA0A28C
Accurately ripped (confidence 2) [63B3D490] (AR v1)
Copy OK
Track 10
Filename C:\EAC Rips\Joe Goldmark - Steelin' the Beatles (1997) [FLAC] {Lo-Ball #8}\10 - She Came in Through the Bathroom Window.wav
Peak level 95.6 %
Extraction speed 3.7 X
Track quality 100.0 %
Test CRC 5B5A7484
Copy CRC 5B5A7484
Accurately ripped (confidence 2) [15104092] (AR v1)
Copy OK
Track 11
Filename C:\EAC Rips\Joe Goldmark - Steelin' the Beatles (1997) [FLAC] {Lo-Ball #8}\11 - I Will.wav
Pre-gap length 0:00:01.56
Peak level 91.8 %
Extraction speed 3.4 X
Track quality 100.0 %
Test CRC A69EB5C4
Copy CRC A69EB5C4
Accurately ripped (confidence 2) [71315D5D] (AR v1)
Copy OK
Track 12
Filename C:\EAC Rips\Joe Goldmark - Steelin' the Beatles (1997) [FLAC] {Lo-Ball #8}\12 - Bad to Me.wav
Peak level 95.3 %
Extraction speed 3.8 X
Track quality 100.0 %
Test CRC 3826D07A
Copy CRC 3826D07A
Accurately ripped (confidence 2) [950F00E4] (AR v1)
Copy OK
All tracks accurately ripped
No errors occurred
End of status report
---- CUETools DB Plugin V2.1.6
[CTDB TOCID: RP4BhCUsl21YbKflPA0_nAEwbmM-] found
Submit result: RP4BhCUsl21YbKflPA0_nAEwbmM- has been confirmed
Track | CTDB Status
1 | (1/1) Accurately ripped
2 | (1/1) Accurately ripped
3 | (1/1) Accurately ripped
4 | (1/1) Accurately ripped
5 | (1/1) Accurately ripped
6 | (1/1) Accurately ripped
7 | (1/1) Accurately ripped
8 | (1/1) Accurately ripped
9 | (1/1) Accurately ripped
10 | (1/1) Accurately ripped
11 | (1/1) Accurately ripped
12 | (1/1) Accurately ripped
==== Log checksum 538B79B74DDF93323AD09B8B5156C838A56AA1E94C5459B1163A9E8BD1A1C969 ====
Содержание индексной карты (.CUE)
REM GENRE Country
REM DATE 1997
REM DISCID 9207920C
REM COMMENT "ExactAudioCopy v1.1"
PERFORMER "Joe Goldmark"
TITLE "Steelin' the Beatles"
FILE "01 - Day Tripper.flac" WAVE
TRACK 01 AUDIO
TITLE "Day Tripper"
PERFORMER "Joe Goldmark"
INDEX 01 00:00:00
FILE "02 - The Night Before.flac" WAVE
TRACK 02 AUDIO
TITLE "The Night Before"
PERFORMER "Joe Goldmark"
INDEX 01 00:00:00
FILE "03 - I'm Only Sleeping.flac" WAVE
TRACK 03 AUDIO
TITLE "I'm Only Sleeping"
PERFORMER "Joe Goldmark"
INDEX 01 00:00:00
FILE "04 - You Can't Do That.flac" WAVE
TRACK 04 AUDIO
TITLE "You Can't Do That"
PERFORMER "Joe Goldmark"
INDEX 01 00:00:00
FILE "05 - Awaiting on You All.flac" WAVE
TRACK 05 AUDIO
TITLE "Awaiting on You All"
PERFORMER "Joe Goldmark"
INDEX 01 00:00:00
FILE "06 - Flying.flac" WAVE
TRACK 06 AUDIO
TITLE "Flying"
PERFORMER "Joe Goldmark"
INDEX 01 00:00:00
FILE "07 - Penny Lane.flac" WAVE
TRACK 07 AUDIO
TITLE "Penny Lane"
PERFORMER "Joe Goldmark"
INDEX 01 00:00:00
FILE "08 - She's a Woman.flac" WAVE
TRACK 08 AUDIO
TITLE "She's a Woman"
PERFORMER "Joe Goldmark"
INDEX 01 00:00:00
FILE "09 - Baby's in Black.flac" WAVE
TRACK 09 AUDIO
TITLE "Baby's in Black"
PERFORMER "Joe Goldmark"
INDEX 01 00:00:00
FILE "10 - She Came in Through the Bathroom Window.flac" WAVE
TRACK 10 AUDIO
TITLE "She Came in Through the Bathroom Window"
PERFORMER "Joe Goldmark"
INDEX 01 00:00:00
FILE "11 - I Will.flac" WAVE
TRACK 11 AUDIO
TITLE "I Will"
PERFORMER "Joe Goldmark"
INDEX 01 00:00:00
FILE "12 - Bad to Me.flac" WAVE
TRACK 12 AUDIO
TITLE "Bad to Me"
PERFORMER "Joe Goldmark"
INDEX 01 00:00:00
Лог проверки качества
---- CUETools DB Plugin V2.1.6
[CTDB TOCID: RP4BhCUsl21YbKflPA0_nAEwbmM-] found
Submit result: RP4BhCUsl21YbKflPA0_nAEwbmM- has been confirmed
Track | CTDB Status
1 | (1/1) Accurately ripped
2 | (1/1) Accurately ripped
3 | (1/1) Accurately ripped
4 | (1/1) Accurately ripped
5 | (1/1) Accurately ripped
6 | (1/1) Accurately ripped
7 | (1/1) Accurately ripped
8 | (1/1) Accurately ripped
9 | (1/1) Accurately ripped
10 | (1/1) Accurately ripped
11 | (1/1) Accurately ripped
12 | (1/1) Accurately ripped
==== Log checksum 538B79B74DDF93323AD09B8B5156C838A56AA1E94C5459B1163A9E8BD1A1C969 ====
Скриншот спектра частот
Особая благодарность augustus.of.york за составление релиза
[Профиль] [ЛС]
Показать сообщения:    
Ответить на тему

Текущее время: Сегодня 08:47

Часовой пояс: GMT + 3



Вы не можете начинать темы
Вы не можете отвечать на сообщения
Вы не можете редактировать свои сообщения
Вы не можете удалять свои сообщения
Вы не можете голосовать в опросах
Вы не можете прикреплять файлы к сообщениям
Вы не можете скачивать файлы