(Classical) Uuno Klami, Einar Englund - Violin Concertos - Benjamin Schmid, Oulu Symphony Orchestra, Johannes Gustavsson - 2016, FLAC (image+.cue) lossless

Ответить на тему
 
Автор Сообщение

Amer ®

Стаж: 4 года 3 месяца

Сообщений: 4

Пост 27-Дек-2016 03:15

[Цитировать]

Uuno Klami, Einar Englund - Violin Concertos - Benjamin Schmid, Oulu Symphony Orchestra, Johannes Gustavsson
Жанр: Classical
Страна-производитель диска: Finland
Год издания диска: 2016
Издатель (лейбл): Ondine
Номер по каталогу: ODE 1278-2
Дата записи: 2015, 2016
Аудиокодек: FLAC
Тип рипа: image+.cue
Битрейт аудио: lossless
Продолжительность: 57:02
Источник: собственный рип
Наличие сканов в содержимом раздачи: да
Треклист:
Einar Englund (1916–1999)
[1]-[3] Concerto for violin and orchestra (1981)
Uuno Klami (1900–1961)
[4]-[6] Concerto for violin and orchestra (1943/1954)
Исполнители:
Benjamin Schmid violin
Oulu Symphony Orchestra
Johannes Gustavsson
conductor
Лог создания рипа
Exact Audio Copy V1.1 from 23. June 2015
EAC extraction logfile from 13. December 2016, 22:18
Benjamin Schmid, Oulu Symphony Orchestra, Johannes Gustavsson / Klami & Englund - Violin Concertos
Used drive : HL-DT-STDVDRAM GU70N Adapter: 1 ID: 0
Read mode : Secure
Utilize accurate stream : Yes
Defeat audio cache : Yes
Make use of C2 pointers : No
Read offset correction : 48
Overread into Lead-In and Lead-Out : No
Fill up missing offset samples with silence : Yes
Delete leading and trailing silent blocks : No
Null samples used in CRC calculations : Yes
Used interface : Native Win32 interface for Win NT & 2000
Used output format : User Defined Encoder
Selected bitrate : 128 kBit/s
Quality : High
Add ID3 tag : No
Command line compressor : C:\Program Files (x86)\Exact Audio Copy\Flac\flac.exe
Additional command line options : -V -8 -T "Date=%year%" -T "Genre=%genre%" %source%
TOC of the extracted CD
Track | Start | Length | Start sector | End sector
---------------------------------------------------------
1 | 0:00.00 | 13:51.52 | 0 | 62376
2 | 13:51.52 | 7:51.60 | 62377 | 97761
3 | 21:43.37 | 7:08.12 | 97762 | 129873
4 | 28:51.49 | 11:29.01 | 129874 | 181549
5 | 40:20.50 | 9:10.02 | 181550 | 222801
6 | 49:30.52 | 7:30.45 | 222802 | 256596
Range status and errors
Selected range
Filename C:\temp\Klami & Englund - Violin Concertos\Klami & Englund - Violin Concertos.wav
Peak level 94.4 %
Extraction speed 5.0 X
Range quality 100.0 %
Test CRC 557F01E1
Copy CRC 557F01E1
Copy OK
No errors occurred
AccurateRip summary
Track 1 not present in database
Track 2 not present in database
Track 3 not present in database
Track 4 not present in database
Track 5 not present in database
Track 6 not present in database
None of the tracks are present in the AccurateRip database
End of status report
==== Log checksum E2667F2AB1F216B99DC8F7037F8D3A2C8CA7F35A857770F94A02C0195AEC4701 ====

Особая благодарность A-Z за составление релиза
[Профиль] [ЛС]
Показать сообщения:    
Ответить на тему

Текущее время: Сегодня 01:55

Часовой пояс: GMT + 3



Вы не можете начинать темы
Вы не можете отвечать на сообщения
Вы не можете редактировать свои сообщения
Вы не можете удалять свои сообщения
Вы не можете голосовать в опросах
Вы не можете прикреплять файлы к сообщениям
Вы не можете скачивать файлы