Суперсерия-2016 / Молодежные сборные ( U20 ) / Четвертый матч / Россия U20 - Канада-OHL / Матч ТВ HD [14.11.2016, Хоккей, HDTVRip/720p/50fps, MKV/H.264, RU/INT]

Ответить на тему
 
Автор Сообщение

kux ®

Стаж: 6 месяцев 2 дня

Сообщений: 1

Пост 19-Ноя-2016 19:15

[Цитировать]

Суперсерия-2016. Молодежные сборные (U20). Четвертый матч
Россия U20 - Канада-OHL
Год выпуска: 14.11.2016
Вид спорта: Хоккей
Комментарий: Профессиональный
Язык комментариев: Русский (Неценко, Корнилов) / Интершум-Описание: Суперсерия-2016. Молодежные сборные (U20). Четвертый матч. Россия U20 - Канада-OHL.-Автор рипа: sanchez2011
Качество: HDTVRip
Формат: MKV
Видео кодек: H.264
Аудио кодек: AC3
Видео: MPEG4 Video (H264) 1280x720 (16:9) 50fps 4000kbps
Аудио: Dolby AC3 48000Hz stereo 192kbps
Скриншоты Составы
Россия U20
1 вр Россия Антон Красоткин
20 вр Россия Владислав Сухачёв
4 зщ Россия Артём Чмыхов
5 зщ Россия Камиль Фазылзянов
6 зщ Россия Егор Зайцев
23 зщ Россия Григорий Дронов
25 зщ Россия Александр Щемеров
27 зщ Россия Руслан Петрищев
28 зщ Россия Тимур Фаткуллин
29 зщ Россия Артём Волков
8 нп Россия Кирилл Ураков
9 нп Россия Данила Квартальнов
11 нп Россия Клим Костин
12 нп Россия Александр Волков
14 нп Россия Кирилл Беляев
15 нп Россия Павел Карнаухов
16 нп Россия Никита Ли
17 нп Россия Герман Рубцов
21 нп Россия Денис Алексеев
7 нп Россия Роман Крикуненко
13 нп Россия Никита Дыняк
22 нп Россия Данил Юртайкин
Главный тренер
Россия Валерий Николаевич Брагин
Канада OHL
40 вр Канада Майкл Макнивен
35 вр Канада Эван Кормье
2 зщ Канада Джейкоб Френд
14 зщ Канада Николас Хаг
21 зщ Канада Гарретт Макфэдден
52 зщ Канада Маркус Филипс
98 зщ Канада Виктор Мете
6 зщ Канада Джордан Сэмбрук
7 нп Канада Натан Бастиан
9 нп Канада Закари Сенишин
12 нп Канада Бретт Маккензи
17 нп Канада Тейлор Рэддиш
19 нп Канада Майкл Маклеод
23 нп Канада Адам Маскерин
24 нп Канада Дживани Смит
25 нп Канада Джордан Кайру
27 нп Канада Митчелл Стивенс
41 нп Канада Уилл Биттен
13 нп Канада Грэм Нотт
16 нп Канада Борис Катчук
Главный тренер
Канада Доминик Дюшарм
Продолжительность
02:04:08
Счет
Россия U20 2 - 5 Канада-OHL
MediaInfo
General
Unique ID : 125342516407603135862742242921161168704 (0x5E4C172F4BB3157318D3392B30F41740)
Complete name : W:\раздачи\ХОККЕЙ. Молодежные сборные. Суперсерия. Матч 4. Rutracker.org..mkv
Format : Matroska
Format version : Version 2
File size : 3.90 GiB
Duration : 2h 4mn
Overall bit rate : 4 502 Kbps
Writing application : Lavf54.63.104
Writing library : Lavf54.63.104 / Lavf54.63.104
Video
ID : 1
Format : AVC
Format/Info : Advanced Video Codec
Format profile : High@L4.1
Format settings, CABAC : Yes
Format settings, ReFrames : 4 frames
Codec ID : V_MPEG4/ISO/AVC
Duration : 2h 4mn
Bit rate : 4 028 Kbps
Width : 1 280 pixels
Height : 720 pixels
Display aspect ratio : 16:9
Frame rate mode : Constant
Frame rate : 50.000 fps
Color space : YUV
Chroma subsampling : 4:2:0
Bit depth : 8 bits
Scan type : Progressive
Bits/(Pixel*Frame) : 0.087
Stream size : 3.49 GiB (89%)
Default : No
Forced : No
Color range : Limited
Color primaries : BT.709
Transfer characteristics : BT.709
Matrix coefficients : BT.709
Audio #1
ID : 2
Format : AC-3
Format/Info : Audio Coding 3
Mode extension : CM (complete main)
Format settings, Endianness : Big
Codec ID : A_AC3
Duration : 2h 4mn
Bit rate mode : Constant
Bit rate : 192 Kbps
Channel(s) : 2 channels
Channel positions : Front: L R
Sampling rate : 48.0 KHz
Frame rate : 31.250 fps (1536 spf)
Compression mode : Lossy
Stream size : 170 MiB (4%)
Default : Yes
Forced : No
Audio #2
ID : 3
Format : AC-3
Format/Info : Audio Coding 3
Mode extension : CM (complete main)
Format settings, Endianness : Big
Codec ID : A_AC3
Duration : 2h 4mn
Bit rate mode : Constant
Bit rate : 192 Kbps
Channel(s) : 2 channels
Channel positions : Front: L R
Sampling rate : 48.0 KHz
Frame rate : 31.250 fps (1536 spf)
Compression mode : Lossy
Stream size : 170 MiB (4%)
Default : No
Forced : No

Особая благодарность sanchez2011 за составление релиза
[Профиль] [ЛС]
Показать сообщения:    
Ответить на тему

Текущее время: Сегодня 20:42

Часовой пояс: GMT + 3



Вы не можете начинать темы
Вы не можете отвечать на сообщения
Вы не можете редактировать свои сообщения
Вы не можете удалять свои сообщения
Вы не можете голосовать в опросах
Вы не можете прикреплять файлы к сообщениям
Вы не можете скачивать файлы