XXXI Летние Олимпийские Игры 2016 / Хоккей на траве / Мужчины / 1/2 финала / Бельгия - Нидерланды / BBC Olympics [16.08.2016, Хоккей на траве, SATRemux, 576i, MPEG2, EN]

Ответить на тему
 
Автор Сообщение

nonamer ®

Стаж: 9 месяцев 14 дней

Сообщений: 1

Пост 30-Сен-2016 19:10

[Цитировать]

XXXI Летние Олимпийские игры в Рио-де-Жанейро
Хоккей на траве / Мужчины / 1/2 финала
Бельгия - Нидерланды

Дата эфира: 16.08.2016
Вид спорта: Хоккей на траве
Комментарий: Профессиональный
Язык комментариев: Английский-Описание: XXXI Летние Олимпийские Игры 2016 / Хоккей на траве / Мужчины / 1/2 финала / Бельгия - Нидерланды.
За постер спасибо: Ларка Крофт-Автор рипа: ваще рутрекер.орг, но все-таки sanchez2011
Качество: SATRemux
Формат: MPG
Видео кодек: MPEG2
Аудио кодек: MP2
Видео: MPEG2 Video 720x576 (16:9) 25fps 3198kbps
Аудио: MPEG Audio 48000Hz stereo 128kbps
Скриншоты Media Info
General
Complete name : W:\раздачи\ОИ 2016. Хоккей. Муж. Полуфинал. Бельгия - Нидерланды.mpg
Format : MPEG-PS
File size : 2.23 GiB
Duration : 1h 34mn
Overall bit rate mode : Variable
Overall bit rate : 3 393 Kbps
Video
ID : 224 (0xE0)
Format : MPEG Video
Format version : Version 2
Format profile : Main@Main
Format settings, BVOP : Yes
Format settings, Matrix : Custom
Format settings, GOP : Variable
Format settings, picture structure : Frame
Duration : 1h 34mn
Bit rate mode : Variable
Bit rate : 3 198 Kbps
Maximum bit rate : 15.0 Mbps
Width : 720 pixels
Height : 576 pixels
Display aspect ratio : 16:9
Frame rate : 25.000 fps
Standard : PAL
Color space : YUV
Chroma subsampling : 4:2:0
Bit depth : 8 bits
Scan type : Interlaced
Scan order : Top Field First
Compression mode : Lossy
Bits/(Pixel*Frame) : 0.308
Time code of first frame : 00:00:00:00
Time code source : Group of pictures header
GOP, Open/Closed : Open
Stream size : 2.10 GiB (94%)
Audio
ID : 192 (0xC0)
Format : MPEG Audio
Format version : Version 1
Format profile : Layer 2
Mode : Joint stereo
Duration : 1h 34mn
Bit rate mode : Constant
Bit rate : 128 Kbps
Channel(s) : 2 channels
Sampling rate : 48.0 KHz
Compression mode : Lossy
Delay relative to video : 12ms
Stream size : 86.2 MiB (4%)
Составы Продолжительность
01:34:07
Счёт
Бельгия - Нидерланды
3 - 1

Особая благодарность sanchez2011 за составление релиза
[Профиль] [ЛС]
Показать сообщения:    
Ответить на тему

Текущее время: Сегодня 17:05

Часовой пояс: GMT + 3



Вы не можете начинать темы
Вы не можете отвечать на сообщения
Вы не можете редактировать свои сообщения
Вы не можете удалять свои сообщения
Вы не можете голосовать в опросах
Вы не можете прикреплять файлы к сообщениям
Вы не можете скачивать файлы