(Reggae, Dub) Два Льва - Просроченная Любовь - 2014, FLAC (tracks+.cue) lossless

Ответить на тему
 
Автор Сообщение

ИринаН ®

Стаж: 2 года 11 месяцев

Сообщений: 2

Пост 12-Сен-2016 00:35

[Цитировать]

Два Льва / Просроченная Любовь
Жанр: Reggae, Dub
Страна-производитель диска: Россия
Год издания диска: 2014
Издатель (лейбл): Два Льва
Номер по каталогу: -
Страна: Россия
Аудиокодек: FLAC
Тип рипа: tracks+.cue
Битрейт аудио: lossless
Продолжительность: 00:39:47
Источник: собственный рип
Наличие сканов в содержимом раздачи: нет
Треклист:
01. Два Льва - Сладкие грёзы (03:15)
02. Два Льва - Новый повод (05:20)
03. Два Льва - Люди говорят (Dance Version) (03:26)
04. Два Льва - Лаборатория любви (02:50)
05. Два Льва - Лейся (03:20)
06. Два Льва - Жигулёвские травы (03:29)
07. Два Льва - Тайна (03:16)
08. Два Льва - Просроченная любовь (03:48)
09. Два Льва - Люди говорят... (03:26)
10. Два Льва - Магия (04:02)
11. Два Льва - Сплетни (03:35)
Лог создания рипа
Exact Audio Copy V1.0 beta 3 from 29. August 2011
EAC extraction logfile from 9. September 2016, 22:47
Два Льва / Просроченная Любовь
Used drive : MATSHITADVD-RAM UJ880AS Adapter: 3 ID: 0
Read mode : Secure
Utilize accurate stream : Yes
Defeat audio cache : Yes
Make use of C2 pointers : No
Read offset correction : 102
Overread into Lead-In and Lead-Out : No
Fill up missing offset samples with silence : Yes
Delete leading and trailing silent blocks : No
Null samples used in CRC calculations : Yes
Used interface : Native Win32 interface for Win NT & 2000
Gap handling : Appended to previous track
Used output format : User Defined Encoder
Selected bitrate : 768 kBit/s
Quality : High
Add ID3 tag : No
Command line compressor : C:\Program Files\Exact Audio Copy\FLAC\FLAC.EXE
Additional command line options : -V -8 -T "Genre=%genre%" -T "Artist=%artist%" -T "Title=%title%" -T "Album=%albumtitle%" -T "Date=%year%" -T "Tracknumber=%tracknr%" -T "Comment=%comment%" %source%
TOC of the extracted CD
Track | Start | Length | Start sector | End sector
---------------------------------------------------------
1 | 0:00.00 | 3:28.45 | 0 | 15644
2 | 3:28.45 | 3:10.21 | 15645 | 29915
3 | 6:38.66 | 5:17.52 | 29916 | 53742
4 | 11:56.43 | 2:50.32 | 53743 | 66524
5 | 14:47.00 | 3:18.55 | 66525 | 81429
6 | 18:05.55 | 3:28.12 | 81430 | 97041
7 | 21:33.67 | 3:16.03 | 97042 | 111744
8 | 24:49.70 | 3:42.72 | 111745 | 128466
9 | 28:32.67 | 3:27.14 | 128467 | 144005
10 | 32:00.06 | 4:02.66 | 144006 | 162221
11 | 36:02.72 | 3:35.25 | 162222 | 178371
Track 1
Filename F:\музыка\Два Льва - Просроченная Любовь (2014)\01 Люди Говорят (dance version).wav
Pre-gap length 0:00:02.00
Peak level 100.0 %
Extraction speed 1.5 X
Track quality 100.0 %
Test CRC 7DFEA17A
Copy CRC 7DFEA17A
Track not present in AccurateRip database
Copy OK
Track 2
Filename F:\музыка\Два Льва - Просроченная Любовь (2014)\02 Сладкие Грёзы.wav
Pre-gap length 0:00:02.00
Peak level 100.0 %
Extraction speed 1.6 X
Track quality 100.0 %
Test CRC 6C18B025
Copy CRC 6C18B025
Track not present in AccurateRip database
Copy OK
Track 3
Filename F:\музыка\Два Льва - Просроченная Любовь (2014)\03 Новый Повод.wav
Pre-gap length 0:00:02.00
Peak level 100.0 %
Extraction speed 1.7 X
Track quality 99.9 %
Test CRC E68FE913
Copy CRC E68FE913
Track not present in AccurateRip database
Copy OK
Track 4
Filename F:\музыка\Два Льва - Просроченная Любовь (2014)\04 Лаборатория Любви.wav
Pre-gap length 0:00:02.00
Peak level 100.0 %
Extraction speed 1.8 X
Track quality 100.0 %
Test CRC 81FE181C
Copy CRC 81FE181C
Track not present in AccurateRip database
Copy OK
Track 5
Filename F:\музыка\Два Льва - Просроченная Любовь (2014)\05 Лейся.wav
Pre-gap length 0:00:02.00
Peak level 100.0 %
Extraction speed 1.9 X
Track quality 100.0 %
Test CRC 47ADA9A1
Copy CRC 47ADA9A1
Track not present in AccurateRip database
Copy OK
Track 6
Filename F:\музыка\Два Льва - Просроченная Любовь (2014)\06 Жигулёвские Травы.wav
Pre-gap length 0:00:02.00
Peak level 100.0 %
Extraction speed 1.7 X
Track quality 99.9 %
Test CRC 12144EDC
Copy CRC 12144EDC
Track not present in AccurateRip database
Copy OK
Track 7
Filename F:\музыка\Два Льва - Просроченная Любовь (2014)\07 Тайна.wav
Pre-gap length 0:00:02.00
Peak level 100.0 %
Extraction speed 2.1 X
Track quality 100.0 %
Test CRC 7AB068F4
Copy CRC 7AB068F4
Track not present in AccurateRip database
Copy OK
Track 8
Filename F:\музыка\Два Льва - Просроченная Любовь (2014)\08 Просроченная Любовь.wav
Pre-gap length 0:00:02.00
Peak level 100.0 %
Extraction speed 2.2 X
Track quality 100.0 %
Test CRC 97F8614E
Copy CRC 97F8614E
Track not present in AccurateRip database
Copy OK
Track 9
Filename F:\музыка\Два Льва - Просроченная Любовь (2014)\09 Люди Говорят (love version).wav
Pre-gap length 0:00:02.00
Peak level 100.0 %
Extraction speed 2.3 X
Track quality 100.0 %
Test CRC 79DD3D61
Copy CRC 79DD3D61
Track not present in AccurateRip database
Copy OK
Track 10
Filename F:\музыка\Два Льва - Просроченная Любовь (2014)\10 Магия.wav
Pre-gap length 0:00:02.00
Peak level 100.0 %
Extraction speed 2.4 X
Track quality 100.0 %
Test CRC B06C7D3D
Copy CRC B06C7D3D
Track not present in AccurateRip database
Copy OK
Track 11
Filename F:\музыка\Два Льва - Просроченная Любовь (2014)\11 Сплетни.wav
Pre-gap length 0:00:02.00
Peak level 100.0 %
Extraction speed 2.5 X
Track quality 100.0 %
Test CRC 159684C7
Copy CRC 159684C7
Track not present in AccurateRip database
Copy OK
None of the tracks are present in the AccurateRip database
No errors occurred
End of status report
==== Log checksum 3CCE9F490932D70BB7225538C4425C18F776B8DAE7825F9F16B09BC269665B02 ====
Содержание индексной карты (.CUE)
REM GENRE Reggae
REM DATE 2014
REM DISCID 8A094A0B
REM COMMENT "ExactAudioCopy v1.0b3"
PERFORMER "Два Льва"
TITLE "Просроченная Любовь"
FILE "01 Люди Говорят (dance version).wav" WAVE
TRACK 01 AUDIO
TITLE "Люди Говорят (dance version)"
PERFORMER "Два Льва"
ISRC 000000000000
FLAGS DCP
INDEX 01 00:00:00
TRACK 02 AUDIO
TITLE "Сладкие Грёзы"
PERFORMER "Два Льва"
ISRC 000000000000
FLAGS DCP
INDEX 00 03:26:45
FILE "02 Сладкие Грёзы.wav" WAVE
INDEX 01 00:00:00
TRACK 03 AUDIO
TITLE "Новый Повод"
PERFORMER "Два Льва"
ISRC 000000000000
FLAGS DCP
INDEX 00 03:08:21
FILE "03 Новый Повод.wav" WAVE
INDEX 01 00:00:00
TRACK 04 AUDIO
TITLE "Лаборатория Любви"
PERFORMER "Два Льва"
ISRC 000000000000
FLAGS DCP
INDEX 00 05:15:52
FILE "04 Лаборатория Любви.wav" WAVE
INDEX 01 00:00:00
TRACK 05 AUDIO
TITLE "Лейся"
PERFORMER "Два Льва"
ISRC 000000000000
FLAGS DCP
INDEX 00 02:48:32
FILE "05 Лейся.wav" WAVE
INDEX 01 00:00:00
TRACK 06 AUDIO
TITLE "Жигулёвские Травы"
PERFORMER "Два Льва"
ISRC 000000000000
FLAGS DCP
INDEX 00 03:16:55
FILE "06 Жигулёвские Травы.wav" WAVE
INDEX 01 00:00:00
TRACK 07 AUDIO
TITLE "Тайна"
PERFORMER "Два Льва"
ISRC 000000000000
FLAGS DCP
INDEX 00 03:26:12
FILE "07 Тайна.wav" WAVE
INDEX 01 00:00:00
TRACK 08 AUDIO
TITLE "Просроченная Любовь"
PERFORMER "Два Льва"
ISRC 000000000000
FLAGS DCP
INDEX 00 03:14:03
FILE "08 Просроченная Любовь.wav" WAVE
INDEX 01 00:00:00
TRACK 09 AUDIO
TITLE "Люди Говорят (love version)"
PERFORMER "Два Льва"
ISRC 000000000000
FLAGS DCP
INDEX 00 03:40:72
FILE "09 Люди Говорят (love version).wav" WAVE
INDEX 01 00:00:00
TRACK 10 AUDIO
TITLE "Магия"
PERFORMER "Два Льва"
ISRC 000000000000
FLAGS DCP
INDEX 00 03:25:14
FILE "10 Магия.wav" WAVE
INDEX 01 00:00:00
TRACK 11 AUDIO
TITLE "Сплетни"
PERFORMER "Два Льва"
ISRC 000000000000
FLAGS DCP
INDEX 00 04:00:66
FILE "11 Сплетни.wav" WAVE
INDEX 01 00:00:00
Лог проверки качества
AUDIOCHECKER v2.0 beta (build 457) - by Dester - opdester@freemail.hu
~~~~~~~~~~~~~~~~~~~~~~~~~~~~~~~~~~
Started at: пятница, 09. 09. 2016. - 22:50.45
11 files found
01 -===- F:\музыка\Два Льва - Просроченная Любовь (2014)\01 Люди Говорят (dance version).flac
Extracted successfully
Conclusion: this track is CDDA with probability 99%
Tempfile successfully deleted.
02 -===- F:\музыка\Два Льва - Просроченная Любовь (2014)\02 Сладкие Грёзы.flac
Extracted successfully
Conclusion: this track is MPEG with probability 95%
Tempfile successfully deleted.
03 -===- F:\музыка\Два Льва - Просроченная Любовь (2014)\03 Новый Повод.flac
Extracted successfully
Conclusion: this track is MPEG with probability 95%
Tempfile successfully deleted.
04 -===- F:\музыка\Два Льва - Просроченная Любовь (2014)\04 Лаборатория Любви.flac
Extracted successfully
Conclusion: this track is MPEG with probability 95%
Tempfile successfully deleted.
05 -===- F:\музыка\Два Льва - Просроченная Любовь (2014)\05 Лейся.flac
Extracted successfully
Conclusion: this track is MPEG with probability 95%
Tempfile successfully deleted.
06 -===- F:\музыка\Два Льва - Просроченная Любовь (2014)\06 Жигулёвские Травы.flac
Extracted successfully
Conclusion: this track is MPEG with probability 95%
Tempfile successfully deleted.
07 -===- F:\музыка\Два Льва - Просроченная Любовь (2014)\07 Тайна.flac
Extracted successfully
Conclusion: this track is MPEG with probability 95%
Tempfile successfully deleted.
08 -===- F:\музыка\Два Льва - Просроченная Любовь (2014)\08 Просроченная Любовь.flac
Extracted successfully
Conclusion: this track is MPEG with probability 95%
Tempfile successfully deleted.
09 -===- F:\музыка\Два Льва - Просроченная Любовь (2014)\09 Люди Говорят (love version).flac
Extracted successfully
Conclusion: this track is MPEG with probability 95%
Tempfile successfully deleted.
10 -===- F:\музыка\Два Льва - Просроченная Любовь (2014)\10 Магия.flac
Extracted successfully
Conclusion: this track is MPEG with probability 95%
Tempfile successfully deleted.
11 -===- F:\музыка\Два Льва - Просроченная Любовь (2014)\11 Сплетни.flac
Extracted successfully
Conclusion: this track is MPEG with probability 95%
Tempfile successfully deleted.
Finished at: пятница, 09. 09. 2016. - 22:54.03 (operation time: 0:03.18)
Скриншот спектра частот
Особая благодарность silinio за составление релиза
[Профиль] [ЛС]
Показать сообщения:    
Ответить на тему

Текущее время: Сегодня 04:37

Часовой пояс: GMT + 3



Вы не можете начинать темы
Вы не можете отвечать на сообщения
Вы не можете редактировать свои сообщения
Вы не можете удалять свои сообщения
Вы не можете голосовать в опросах
Вы не можете прикреплять файлы к сообщениям
Вы не можете скачивать файлы