(Reggae) Jah Division - Recycled - 2003, FLAC (image+.cue) lossless

Ответить на тему
 
Автор Сообщение

prirom ®

Стаж: 1 год 10 месяцев

Сообщений: 1

Пост 21-Июл-2016 00:35

[Цитировать]

Jah Division / Recycled
Жанр: Reggae
Страна-производитель диска: Россия
Год издания диска: 2003
Издатель (лейбл): Отделение ВЫХОД
Номер по каталогу: В 205
Страна: Россия
Аудиокодек: FLAC
Тип рипа: image+.cue
Битрейт аудио: lossless
Продолжительность: 56:09
Источник: собственный рип
Наличие сканов в содержимом раздачи: да
Треклист:
1. Молитва
2. Черный октябрь 93 года
3. Еврейская народная / Кавказская застольная
4. Две луны два Льва
5. Активная жизненная позиция
6. Грустная песня о Кубе
7. Магию придумываем сами
8. 4-ая лебединая песня
9. Марихуана – это оружие Джа (песня Жака Растамана)
10. Колыбельная
Лог создания рипа
Exact Audio Copy V1.1 from 23. June 2015
Отчёт EAC об извлечении, выполненном 8. июля 2016, 13:55
Jah Division / Recycled
Дисковод: HL-DT-STDVDRAM GSA-H10A Adapter: 1 ID: 0
Режим чтения : Достоверность
Использование точного потока : Да
Отключение кэша аудио : Да
Использование указателей C2 : Нет
Коррекция смещения при чтении : 667
Способность читать области Lead-in и Lead-out : Нет
Заполнение пропущенных сэмплов тишиной : Да
Удаление блоков с тишиной в начале и конце : Нет
При вычислениях CRC использовались нулевые сэмплы : Да
Интерфейс : Встроенный Win32-интерфейс для Win NT/2000
Выходной формат : Внутренние WAV-операции
Формат сэмплов : 44.100 Гц; 16 бит; стерео
TOC извлечённого CD
Трек | Старт | Длительность | Начальный сектор | Конечный сектор
---------------------------------------------------------------------
1 | 0:00.00 | 5:34.39 | 0 | 25088
2 | 5:34.39 | 7:50.29 | 25089 | 60367
3 | 13:24.68 | 4:58.14 | 60368 | 82731
4 | 18:23.07 | 5:45.53 | 82732 | 108659
5 | 24:08.60 | 5:50.02 | 108660 | 134911
6 | 29:58.62 | 4:59.69 | 134912 | 157405
7 | 34:58.56 | 6:05.25 | 157406 | 184805
8 | 41:04.06 | 5:45.43 | 184806 | 210723
9 | 46:49.49 | 3:57.12 | 210724 | 228510
10 | 50:46.61 | 5:11.45 | 228511 | 251880
11 | 55:58.31 | 0:11.00 | 251881 | 252705
Характеристики диапазона извлечения и сообщения об ошибках
Выбранный диапазон
Имя файла D:\Music\Jah Division - 2003 - Recycled.wav
Пиковый уровень 100.0 %
Скорость извлечения 6.6 X
Качество диапазона 99.9 %
CRC теста 4A8C1C83
CRC копии 4A8C1C83
Копирование... OK
Ошибок не произошло
AccurateRip: сводка
Трек 1 : извлечено точно (доверие 1) [48C8EABC] (AR v2)
Трек 2 : извлечено точно (доверие 1) [C689FD3F] (AR v2)
Трек 3 : извлечено точно (доверие 1) [03DE6039] (AR v2)
Трек 4 : извлечено точно (доверие 1) [B21C3C72] (AR v2)
Трек 5 : извлечено точно (доверие 1) [6375C805] (AR v2)
Трек 6 : извлечено точно (доверие 1) [120EC63D] (AR v2)
Трек 7 : извлечено точно (доверие 1) [DC6680B7] (AR v2)
Трек 8 : извлечено точно (доверие 1) [4A47BBD1] (AR v2)
Трек 9 : извлечено точно (доверие 1) [156819D7] (AR v2)
Трек 10 : извлечено точно (доверие 1) [77727401] (AR v2)
Трек 11 отсутствует в базе данных
10 трек(и) скопированы точно
1 трек(и) не содержатся в базе AccurateRip
Некоторые треки не прошли проверку на точность
Конец отчёта
---- CUETools DB Plugin V2.1.6
[CTDB TOCID: vSeBl3uiP29zq3uHB3yTxF2FCgA-] found
Submit result: vSeBl3uiP29zq3uHB3yTxF2FCgA- has been confirmed
Track | CTDB Status
1 | (1/1) Accurately ripped
2 | (1/1) Accurately ripped
3 | (1/1) Accurately ripped
4 | (1/1) Accurately ripped
5 | (1/1) Accurately ripped
6 | (1/1) Accurately ripped
7 | (1/1) Accurately ripped
8 | (1/1) Accurately ripped
9 | (1/1) Accurately ripped
10 | (1/1) Accurately ripped
11 | (1/1) Accurately ripped
Содержание индексной карты (.CUE)
REM GENRE Reggae
REM DATE 2003
REM DISCID 720D290B
REM COMMENT "ExactAudioCopy v1.1"
PERFORMER "Jah Division"
TITLE "Recycled"
FILE "Jah Division - 2003 - Recycled.flac" WAVE
TRACK 01 AUDIO
TITLE "Молитва"
PERFORMER "Jah Division"
FLAGS DCP
INDEX 01 00:00:00
TRACK 02 AUDIO
TITLE "Чёрный октябрь 93 года"
PERFORMER "Jah Division"
FLAGS DCP
INDEX 00 05:32:39
INDEX 01 05:34:39
TRACK 03 AUDIO
TITLE "Еврейская народная / Кавказская застольная"
PERFORMER "Jah Division"
FLAGS DCP
INDEX 00 13:22:68
INDEX 01 13:24:68
TRACK 04 AUDIO
TITLE "Две луны два Льва"
PERFORMER "Jah Division"
FLAGS DCP
INDEX 00 18:21:07
INDEX 01 18:23:07
TRACK 05 AUDIO
TITLE "Активная жизненая позиция"
PERFORMER "Jah Division"
FLAGS DCP
INDEX 00 24:06:60
INDEX 01 24:08:60
TRACK 06 AUDIO
TITLE "Грустная песня о Кубе"
PERFORMER "Jah Division"
FLAGS DCP
INDEX 00 29:56:62
INDEX 01 29:58:62
TRACK 07 AUDIO
TITLE "Магию придумываем сами"
PERFORMER "Jah Division"
FLAGS DCP
INDEX 00 34:56:56
INDEX 01 34:58:56
TRACK 08 AUDIO
TITLE "4-ая лебединая песня"
PERFORMER "Jah Division"
FLAGS DCP
INDEX 00 41:02:06
INDEX 01 41:04:06
TRACK 09 AUDIO
TITLE "Марихуана - это оружие Джа (песня Жака Растамана)"
PERFORMER "Jah Division"
FLAGS DCP
INDEX 00 46:47:49
INDEX 01 46:49:49
TRACK 10 AUDIO
TITLE "Колыбельная"
PERFORMER "Jah Division"
FLAGS DCP
INDEX 00 50:44:61
INDEX 01 50:46:61
TRACK 11 AUDIO
TITLE "Untitled"
PERFORMER "Jah Division"
FLAGS DCP
INDEX 01 55:58:31

Особая благодарность zaalei за составление релиза
[Профиль] [ЛС]
Показать сообщения:    
Ответить на тему

Текущее время: Сегодня 13:20

Часовой пояс: GMT + 3



Вы не можете начинать темы
Вы не можете отвечать на сообщения
Вы не можете редактировать свои сообщения
Вы не можете удалять свои сообщения
Вы не можете голосовать в опросах
Вы не можете прикреплять файлы к сообщениям
Вы не можете скачивать файлы